アットウィキロゴ
turn into white
BEMANI Sound Team "S-C-U & TATSUYA"

EXTREME

Level: 9.0
BPM: 186
Notes: 687

1
口口口口 |----|
口口口口 |----|
口②口口 |----|
口口①口 |--①②|
2
②③④④ |①---|
②③①① |--②-|
口口口口 |--③-|
口口口口 |--④-|
3
口口口口 |----|
④④①① |①---|
②口口③ |②-③-|
口②③口 |--④-|
4
口口口口 |----|
④④①① |①---|
②口口③ |②-③-|
口②③口 |--④-|
5
口③口口 |--①-|
口口②口 |②-③-|
口①口口 |----|
口口口口 |----|
6
口口口口 |①---|
口①③口 |②---|
口口口口 |③---|
②④②④ |④---|
7
口口口口 |①---|
口①③口 |②---|
口口口口 |③---|
②④②④ |④---|
8
①③④② |①②③④|
⑤⑦⑧⑥ |⑤⑥⑦⑧|
⑨⑪⑫⑩ |⑨⑩⑪⑫|
⑬⑮⑯⑭ |⑬⑭⑮⑯|
9
①①②② |①-②-|
口口口口 |--③④|
③⑤⑥④ |⑤⑥⑦⑧|
⑦⑨⑩⑧ |⑨⑩--|
10
③口②① |--①-|
口③口⑥ |②-③-|
口口⑥口 |--④-|
④⑤口口 |⑤-⑥-|
11
口口②① |--①-|
③③口口 |②-③-|
⑤⑦⑥⑤ |--④-|
④口⑧④ |⑤⑥⑦⑧|
12
②③口④ |①-②-|
⑦口④口 |③-④-|
口⑦口口 |--⑤-|
口①⑥⑤ |⑥-⑦-|
13
①②口口 |--①-|
⑤③③⑤ |②-③-|
口⑤⑤口 |--④-|
④④④④ |⑤---|
14
⑤⑥②① |①-②-|
口③⑦口 |③-④-|
④口口⑧ |⑤-⑥-|
口口口口 |⑦-⑧-|
15
口口口口 |①-②-|
⑧口口④ |③-④-|
口⑦③口 |⑤-⑥-|
①②⑥⑤ |⑦-⑧-|
16
口①①口 |①---|
口②②口 |--②-|
口口口口 |----|
④③③④ |③-④-|
17
口①⑧口 |--①②|
⑦口②⑥ |③-④-|
⑤③口④ |⑤-⑥-|
口口口口 |⑦-⑧-|
18
②①口⑤ |①---|
口②⑤口 |②---|
口口口口 |③-④-|
③③④④ |--⑤-|
19
③口③口 |--①-|
口②口② |--②-|
①口①口 |--③-|
口口口口 |----|
20
口①④口 |①---|
①口口④ |②---|
②口口③ |③---|
口②③口 |④---|
21
③③③③ |①---|
口①①口 |--②-|
②口口② |--③-|
口口口口 |----|
22
口口口口 |①---|
口口口② |--②-|
口口①③ |----|
口②③口 |③---|
23
口③②口 |①---|
③①口口 |--②-|
②口口口 |----|
口口口口 |③---|
24
⑯⑮⑬⑩ |①②③④|
⑭⑫⑨⑥ |⑤⑥⑦⑧|
⑪⑧⑤③ |⑨⑩⑪⑫|
⑦④②① |⑬⑭⑮⑯|
25
口口⑬⑩ |①②③④|
口⑫⑨⑥ |⑤⑥⑦⑧|
⑪⑧⑤③ |⑨⑩⑪⑫|
⑦④②① |⑬---|
26
②②口口 |①---|
⑤口口口 |②---|
口④③口 |③-④-|
口①①⑤ |--⑤-|
27
④口口④ |--①-|
口①②口 |--②-|
口③③口 |--③-|
口②①口 |④---|
28
⑤①口口 |----|
⑤口②口 |①-②-|
口③口口 |③-④-|
⑤口④口 |--⑤-|
29
口②③① |--①-|
口②③① |--②-|
④口口④ |--③-|
口②③① |--④-|
30
①①口口 |----|
④口口口 |①---|
口③②口 |②-③-|
口口口④ |--④-|
31
④口口④ |--①-|
口①②口 |--②-|
口③③口 |--③-|
口②①口 |④---|
32
④①①口 |----|
④口口口 |①---|
口②③口 |②-③-|
④口口口 |--④-|
33
口②③① |--①-|
口②③① |--②-|
口口口口 |--③-|
口②③① |----|
34
①口口① |----|
口口口口 |①---|
口②③口 |②-③-|
口④⑤口 |④-⑤-|
35
口口②口 |--①-|
①③口① |----|
口口④口 |②-③-|
口⑤口口 |④-⑤-|
36
口②③口 |----|
口④⑤口 |①---|
①口口① |②-③-|
口口口口 |④-⑤-|
37
②口③② |--①-|
口④口口 |--②-|
口口⑤口 |--③-|
①口口① |④-⑤-|
38
③口口④ |①---|
口③④口 |--②-|
②口口② |----|
口①口口 |③-④-|
39
口①口口 |----|
口②口口 |----|
口口口口 |----|
口口口口 |--①②|
40
口口口口 |①---|
⑤口口② |--②③|
⑥①口③ |④---|
口口口④ |--⑤⑥|
41
口口口口 |①---|
口口②口 |--②③|
口口③口 |④---|
①口④口 |----|
42
①口口① |----|
①口口① |①---|
口②③口 |②-③-|
口④⑤口 |④-⑤-|
43
口口②口 |--①-|
①③口① |----|
①口④① |②-③-|
口⑤口口 |④-⑤-|
44
①口口① |----|
①口口① |①---|
口②③口 |②-③-|
口④⑤口 |④-⑤-|
45
②口③② |--①-|
①④口① |--②-|
①口⑤① |--③-|
口口口口 |④-⑤-|
46
口口口口 |①---|
②口口② |--②-|
口口口口 |----|
②①口② |----|
47
口口口口 |----|
口口口口 |----|
口口口口 |----|
口口②① |--①②|
48
⑭⑬⑪⑧ |①②③④|
⑫⑩⑦④ |⑤⑥⑦⑧|
⑨⑥③① |⑨⑩⑪⑫|
⑤②⑯⑮ |⑬⑭⑮⑯|
49
⑩⑩口⑧ |①②③④|
⑨⑨⑦④ |⑤⑥⑦⑧|
口⑥③① |⑨-⑩-|
⑤②⑪⑪ |--⑪-|
50
口口口口 |----|
⑤口③口 |①---|
口④口② |②-③-|
①口口口 |④-⑤-|
51
②口口① |--①-|
⑤口口⑤ |--②-|
口⑤⑤口 |③-④-|
口③④口 |--⑤-|
52
口口口口 |----|
口③口⑤ |①---|
②口④口 |②-③-|
口口口① |④-⑤-|
53
①口口② |--①-|
⑤口口⑤ |--②-|
口⑤⑤口 |③-④-|
口③④口 |--⑤-|
54
①口口口 |----|
⑤口③口 |①---|
口④口② |②-③-|
口口口口 |④-⑤-|
55
②口口① |--①-|
⑤口口⑤ |--②-|
口⑤⑤口 |③-④-|
⑤④③⑤ |--⑤-|
56
口口口① |----|
口③口⑤ |①---|
②口④口 |②-③-|
口口口口 |④-⑤-|
57
①口⑥② |--①-|
⑤⑦口口 |--②③|
口⑪⑧④ |④⑤⑥⑦|
③⑨⑩口 |⑧⑨⑩⑪|
58
②③④④ |①---|
②③①口 |--②-|
口口口口 |--③-|
口口口口 |--④-|
59
口口口口 |----|
④④①① |①---|
②口口③ |②-③-|
口②③口 |--④-|
60
口口口口 |----|
④④①① |①---|
②口口③ |②-③-|
口②③口 |--④-|
61
口③口口 |--①-|
口口②口 |②-③-|
口①口口 |----|
口口口口 |----|
62
口口口口 |①---|
①⑤⑤② |②---|
口③④口 |③-④-|
①口口② |--⑤-|
63
口口口口 |--①-|
口口口口 |②-③-|
④③⑥① |--④-|
口⑤②口 |⑤-⑥-|
64
①③④② |①②③④|
⑤⑦⑧⑥ |⑤⑥⑦⑧|
⑨⑪⑫⑩ |⑨⑩⑪⑫|
⑬⑮⑯⑭ |⑬⑭⑮⑯|
65
①①②② |①-②-|
口口口口 |--③④|
③⑤⑥④ |⑤⑥⑦⑧|
⑦⑨⑩⑧ |⑨⑩--|
66
③口②① |--①-|
口③口⑥ |②-③-|
口口⑥口 |--④-|
④⑤口口 |⑤-⑥-|
67
口口②① |--①-|
③③口口 |②-③-|
⑤⑦⑥⑤ |--④-|
④口⑧④ |⑤⑥⑦⑧|
68
②③口④ |①-②-|
⑦口④口 |③-④-|
口⑦口口 |--⑤-|
口①⑥⑤ |⑥-⑦-|
69
①②口口 |--①-|
⑤③③⑤ |②-③-|
口⑤⑤口 |--④-|
④④④④ |⑤---|
70
⑤⑥②① |①-②-|
口③⑦口 |③-④-|
④口口⑧ |⑤-⑥-|
口口口口 |⑦-⑧-|
71
口口口口 |①-②-|
⑧口口④ |③-④-|
口⑦③口 |⑤-⑥-|
①②⑥⑤ |⑦-⑧-|
72
口①①口 |①---|
口②②口 |--②-|
口口口口 |----|
④③③④ |③-④-|
73
口①⑧口 |--①②|
⑦口②⑥ |③-④-|
⑤③口④ |⑤-⑥-|
口口口口 |⑦-⑧-|
74
②①口⑤ |①---|
口②⑤口 |②---|
口口口口 |③-④-|
③③④④ |--⑤-|
75
③口③口 |--①-|
口②口② |--②-|
①口①口 |--③-|
口口口口 |----|
76
口①④口 |①---|
①口口④ |②---|
②口口③ |③---|
口②③口 |④---|
77
③③③③ |①---|
口①①口 |--②-|
②口口② |--③-|
口口口口 |----|
78
口口口口 |①---|
口口口② |--②-|
口口①③ |----|
口②③口 |③---|
79
口③②口 |①---|
③①口口 |--②-|
②口口口 |----|
口口口口 |③---|
80
⑧口口⑦ |①-②-|
⑥口口⑤ |③-④-|
④口口③ |⑤-⑥-|
②口口① |⑦-⑧-|
81
⑭②①⑭ |①②③④|
⑬④③⑬ |⑤⑥⑦⑧|
⑫⑥⑤⑪ |⑨⑩⑪⑫|
⑩⑧⑦⑨ |⑬-⑭-|
82
口②②口 |①---|
口①①口 |②---|
口口口口
口口口口

口口口口
口⑤⑤口
③口口④ |③-④-|
口口口口 |--⑤-|
83
①口口② |--①-|
口口口口 |②---|
③口口④ |③-④-|
⑤口口⑥ |⑤-⑥-|
84
口②②口 |①---|
口①①口 |②---|
口口口口
口口口口

口口口口
口⑤⑤口
③口口④ |③-④-|
口口口口 |--⑤-|
85
⑥⑥⑥⑥ |--①-|
①⑤⑤② |②---|
④④④④ |③-④-|
口③③口 |⑤-⑥-|

accuracy: 100%
最終更新:2022年05月10日 04:35