アットウィキロゴ
世界の果てに約束の凱歌を -jubeat edition-
かめりあ

ADVANCED

Level: 9.2
BPM: 201
Notes(hold): 816(24)

1
①口口口 |----|
口口口口 |----|
口口口口 |----|
口口口口 |①---|
2
口口口口 |①---|
口口口口 |----|
――① |②---|
口口口口 |----|

口口口口
口口口口
②口口②
口口口口
3
口口口口 |----|
口口①口 |----|
口口口口 |①---|
口口口口 |----|
4
――① |①---|
口口口口 |---②|
口口口口 |----|
口口口口 |----|

口口口②
口口口口
口②口口
口口口口
5
口口口口 |①---|
口①④口 |②---|
口口②口 |③---|
口③口口 |④---|
6
③口口③ |①---|
口②口口 |②---|
①口④① |③---|
口口口口 |④---|
7
口口口口 |①---|
①口④① |②---|
口②口口 |③---|
③口口③ |④---|
8
口③①口 |①---|
③口口① |②---|
②口口④ |③---|
口②④口 |④---|
9
①口口口 |①-②-|
口⑦⑥② |③-④-|
③⑤⑧口 |⑤-⑥-⑦-|
口⑨⑩④ |⑧-⑨-⑩-|
10
①②③④ |①②③④|
⑨⑧⑦⑥|⑤---|
口口口口 |⑥⑦⑧⑨|
⑤口口⑩ |⑩---|
11
⑪⑬⑫⑩ |①②③④|
⑦⑨⑧⑥ |⑤---|
①②③④ |⑥⑦⑧⑨|
口⑤口口 |⑩⑪⑫⑬|
12
口口口口 |①②③④|
⑥⑦⑧⑨ |⑤---|
⑩口口⑤ |⑥⑦⑧⑨|
④③②① |⑩---|
13
④③②① |①②③④|
⑩⑫⑬⑪ |⑤---|
口口⑤口 |⑥⑦⑧⑨|
⑥⑧⑨⑦ |⑩⑪⑫⑬|
14
⑤口口⑩ |①②③④|
口口口口 |⑤---|
①②③④ |⑥⑦⑧⑨|
⑨⑧⑦⑥ |⑩---|
15
口⑤口口 |①②③④|
①②③④ |⑤---|
⑥⑧⑨⑦ |⑥⑦⑧⑨|
⑩⑫⑬⑪ |⑩⑪⑫⑬|
16
⑩⑤口口 |①②③④|
①②③④ |⑤---|
⑥⑦⑧⑨ |⑥⑦⑧⑨|
口口口口 |⑩---|
17
口口口⑤ |①②③④|
⑥⑧⑨⑦ |⑤---|
⑩⑫⑬⑪ |⑥⑦⑧⑨|
④③②① |⑩⑪⑫⑬|
18
①②③④ |①②③④|
⑨⑧⑦⑥|⑤---|
口口口口 |⑥⑦⑧⑨|
⑤口口⑩ |⑩---|
19
⑪⑬⑫⑩ |①②③④|
⑦⑨⑧⑥ |⑤---|
①②③④ |⑥⑦⑧⑨|
口⑤口口 |⑩⑪⑫⑬|
20
口口口口 |①②③④|
⑥⑦⑧⑨ |⑤---|
⑩口口⑤ |⑥⑦⑧⑨|
④③②① |⑩---|
21
④③②① |①②③④|
⑩⑫⑬⑪ |⑤---|
口口⑤口 |⑥⑦⑧⑨|
⑥⑧⑨⑦ |⑩⑪⑫⑬|
22
⑤口口⑩ |①②③④|
口口口口 |⑤---|
①②③④ |⑥⑦⑧⑨|
⑨⑧⑦⑥ |⑩---|
23
口⑤口口 |①②③④|
①②③④ |⑤---|
⑥⑧⑨⑦ |⑥⑦⑧⑨|
⑩⑫⑬⑪ |⑩⑪⑫⑬|
24
⑩⑤口口 |①②③④|
①②③④ |⑤---|
⑥⑦⑧⑨ |⑥⑦⑧⑨|
口口口口 |⑩---|
25
口口口⑤ |①②③④|
⑥⑧⑨⑦ |⑤---|
⑩⑫⑬⑪ |⑥⑦⑧⑨|
④③②① |⑩⑪⑫⑬|
26
口①③口 |①-②-|
口口口口 |--③-|
口⑥口口 |④---|
⑤④②⑤ |⑤-⑥-|
27
口③口① |①-②-|
⑤②口⑤ |③-④-|
口口④口 |⑤---|
口口口口 |----|
28
口口口口 |①---|
口②②口 |----|
①口口① |----|
口口口口 |②---|
29
口口口口 |----|
口口口口 |----|
口①①口 |①---|
口②口口 |②---|
30
①口口① |①-②-|
口②口③ |--③-|
④口口口 |④---|
口⑤⑤口 |⑤---|
31
⑤⑤③口 |①-②-|
口①口口 |③-④-|
口④②口 |⑤---|
口口⑥⑥ |⑥---|
32
②口口③ |①---|
口①①口 |--②-|
口④④口 |③---|
口口口口 |④---|
33
口⑦④口 |--①-|
口⑤⑥口 |②-③-|
口口口口 |④-⑤-|
①③口② |⑥-⑦-|
34
口口口② |①---|
口口口口 |----|
口口口① |②---|
②口①口 |----|
35
②①口口 |①---|
①⑥③口 |--②-|
口③⑤口 |③-④-|
口口口④ |⑤-⑥-|
36
口①口② |①---|
①口口口 |----|
口口口口 |②---|
②口口口 |----|
37
④口口口 |①---|
口⑤③口 |--②-|
口③⑥① |③-④-|
口口①② |⑤-⑥-|
38
口口口② |①---|
口口口口 |----|
口口口① |②---|
②口①口 |----|
39
②①口③ |①---|
①口口口 |--②-|
口口口口 |----|
③口口口 |③---|
40
③口②口 |①---|
口①口口 |--②-|
口口①口 |----|
口②口③ |③---|
41
口⑦口④ |①-②-|
③⑧口⑥ |③-④-|
⑤⑨口② |⑤-⑥-|
①⑩口口 |⑦⑧⑨⑩|
42
口口口口 |①---|
②口口口 |----|
―①口 |②---|
口口口口 |③---|

口口口口
口>―③
口口③口
口口口口
43
口①④口 |①---|
口口⑤② |②-③-|
口③⑥口 |----|
口口⑦口 |④⑤⑥⑦|
44
口口口口 |①---|
口①―< |----|
口口口② |②---|
口口口口 |③---|

③―<口
口③口口
口口口口
口口口口
45
②④口① |①---|
口⑤③口 |②-③-|
口⑥口口 |----|
口⑦口口 |④⑤⑥⑦|
46
②口口口 |①---|
口口口口 |--②-|
―①口 |----|
口口口口 |③---|

口口口口
口>―③
③口③口
口口口口
47
口①④口 |①---|
口③⑤② |②-③-|
口口⑥口 |----|
口口⑦口 |④⑤⑥⑦|
48
口口口口 |①---|
口口口② |--②-|
口①―< |----|
口口口口 |③---|

口口口③
③―<口
口③口口
口口口口
49
口⑥口口 |①---|
③口⑤口 |--②-|
口口①④ |③-④-|
口口②口 |⑤-⑥-|
50
∨口口口 |①---|
|口口口 |----|
|②②口 |②---|
①①口口 |③---|

口口口口
口口口口
口口口口
③口口口
51
口口①① |①---|
②②口口 |②---|
口口口口 |③---|
口口口口 |④---|

口口口∨
口口口|
口④④|
口口③③
52
①①口口 |①---|
③口口② |②-③-|
③口⑤② |----|
口④口① |④-⑤-|
53
②①口① |①---|
口口口④ |②---|
②口口口 |③---|
③口③④ |④---|
54
口∨口② |①---|
口|口口 |--②-|
口①①② |----|
口口口口 |③---|

口③③口
口口口口
口③口口
口口口口
55
口口口口 |①---|
①②⑥① |--②③|
口口③⑤ |④---|
口④―< |⑤-⑥-|
56
②―<① |①---|
②口口口 |②---|
口口口口 |③---|
口①口口 |④---|

③口口口
口④口口
―③口
口口③口
57
口口口口 |①---|
②口口口 |--②③|
口口①③ |④---|
④①口口 |----|
58
口口口口 |①---|
口∨口口 |----|
口|口口 |②---|
口①口① |----|

口口口口
②口②口
口口|口
口②∧口
59
口口口口 |①---|
口口①口 |----|
口①―< |②---|
口口口口 |③---|

口③口口
③口口口
口②口②
口口②口
60
口口①① |①---|
口②口⑤ |②-③-|
口口③口 |----|
④口口口 |④-⑤-|
61
口①口口 |①---|
①③②口 |②---|
③⑤④② |③---|
口口口口 |④-⑤-|
62
口④④口 |①--②|
②③③① |--③-|
口口口口 |--④-|
②⑤⑤① |-⑤--|
63
①⑤⑤② |①--②|
口③③口 |--③-|
①口口② |--④-|
④口口④ |-⑤--|
64
①口口② |①-②-|
③⑤⑥④ |③-④-|
口⑦⑧口 |⑤-⑥-|
口口口口 |⑦-⑧-|
65
⑦口口⑧ |①②③④|
⑤⑨⑨⑥ |⑤⑥⑦⑧|
③口口④ |⑨---|
①口口② |----|
66
口①口口 |①---|
口口口口 |--②-|
口口口口 |----|
口口②口 |----|
67
口口④口 |①-②-|
口③口口 |③-④-|
口口②口 |----|
口①口口 |----|
68
①口口② |①---|
口口口口 |----|
口口口口 |----|
口口口口 |②---|
69
口口口口 |----|
口口口口 |----|
①口口口 |①---|
口口口口 |----|
70
口口口口 |①--②|
口口①口 |--③-|
口③④口 |④---|
口②口口 |----|
71
①口口口 |①-②-|
口⑤口② |③-④-|
③口口口 |⑤---|
口口口④ |----|
72
①①口口 |①---|
口口②② |②---|
口④④口 |③---|
口③③口 |④---|
73
⑦⑮⑯⑧ |①②③④|
⑤⑬⑭⑥ |⑤⑥⑦⑧|
③⑪⑫④ |⑨⑩⑪⑫|
①⑨⑩② |⑬⑭⑮⑯|
74
口口口口 |①---|
口口口口 |--②-|
口口口口 |--③-|
①――< |④-⑤-|

③口口④
口③④②
口口口口
②⑤⑤②
75
口①②口 |①--②|
④⑥⑥⑤ |--③-|
①③③② |④--⑤|
④口口⑤ |--⑥-|
76
①①②② |①--②|
④⑦口⑤ |--③-|
口⑥口口 |④--⑤|
④③③⑤ |--⑥⑦|
77
口①②② |①--②|
口口口口 |--③-|
③口口口 |④---|
口③口口 |⑤-⑥⑦|

口口口口
口口口口
――④
口口④口

口口口口
口⑦口口
口⑥口⑤
口口口口
78
③①口③ |①--②|
口口口口 |--③-|
口口②口 |④---|
口口口② |⑤-⑥⑦|

口口口口
口口∨口
口口|口
口④④口

口口口口
口口口口
⑦口口口
⑥口⑤口
79
③口②③ |①--②|
①口口② |--③-|
口口口口 |④---|
口口口口 |⑤-⑥⑦|

口口∨口
口口|口
口④④口
口口口口

口口口口
口口口口
⑦口⑤口
⑥口口口
80
③口④④ |①--②|
①③②口 |--③-|
口⑤⑥② |④--⑤|
口⑤⑥口 |--⑥-|
81
③①④③ |①--②|
口口口① |--③-|
④⑤⑥口 |④--⑤|
②⑤⑥② |--⑥-|
82
口口口口 |①---|
①――< |----|
口口口口 |----|
口口口口 |②③④⑤|

口口②口
②口③口
口口④口
口口⑤口
83
①④⑥② |①--②|
口⑤⑤④ |--③-|
①⑥口② |④--⑤|
口③口③ |--⑥-|
84
①④口② |①--②|
④⑥⑥口 |--③-|
①口⑤② |④--⑤|
口③③⑤ |--⑥-|
85
①③①口 |①--②|
口⑦口④ |--③-|
③②⑥② |④---|
口⑤④口 |-⑤⑥⑦|
86
③③①① |①--②|
②口口口 |--③-|
口⑤口④ |④--⑤|
②口⑤④ |--⑥-|

口口⑥口
口⑥口口
口口口口
口口口口
87
④④口① |①--②|
④口①① |--③-|
②⑤③③ |④--⑤|
②②⑤③ |--⑥-|

口口⑥口
口口口⑥
口口口口
口口口口
88
口口口口 |①---|
口①①口 |②③④⑤|
⑥⑦④⑤ |⑥⑦⑧⑨|
②③⑧⑨ |⑩⑪⑫⑬|

⑩⑪口口
口口⑫⑬
口口口口
口口口口
89
口口口口 |①---|
①口口口 |----|
②②②② |②---|
口②②口 |----|
90
①②③④ |①②③④|
⑨⑧⑦⑥|⑤---|
口口口口 |⑥⑦⑧⑨|
⑤口口⑩ |⑩---|
91
⑪⑬⑫⑩ |①②③④|
⑦⑨⑧⑥ |⑤---|
①②③④ |⑥⑦⑧⑨|
口⑤口口 |⑩⑪⑫⑬|
92
口口口口 |①②③④|
⑥⑦⑧⑨ |⑤---|
⑩口口⑤ |⑥⑦⑧⑨|
④③②① |⑩---|
93
④③②① |①②③④|
⑩⑫⑬⑪ |⑤---|
口口⑤口 |⑥⑦⑧⑨|
⑥⑧⑨⑦ |⑩⑪⑫⑬|
94
⑤口口⑩ |①②③④|
口口口口 |⑤---|
①②③④ |⑥⑦⑧⑨|
⑨⑧⑦⑥ |⑩---|
95
口⑤口口 |①②③④|
①②③④ |⑤---|
⑥⑧⑨⑦ |⑥⑦⑧⑨|
⑩⑫⑬⑪ |⑩⑪⑫⑬|
96
⑩⑤口口 |①②③④|
①②③④ |⑤---|
⑥⑦⑧⑨ |⑥⑦⑧⑨|
口口口口 |⑩---|
97
口口口⑤ |①②③④|
⑥⑧⑨⑦ |⑤---|
⑩⑫⑬⑪ |⑥⑦⑧⑨|
④③②① |⑩⑪⑫⑬|
98
①口口③ |①--②|
口⑥口口 |--③-|
口口口口 |④---|
口④②⑤ |⑤---⑥-|
99
口②①⑤ |--①----②----|
④口口口 |----③----④--|
口口③口 |-⑤--|
⑥⑦⑧⑨ |⑥⑦⑧⑨|
100
口口口口 |⑩---|
口⑩口口 |----|
口口口口 |----|
口口口口 |----|
最終更新:2022年04月07日 13:59