アットウィキロゴ
世界の果てに約束の凱歌を -jubeat edition-
かめりあ

EXTREME

Level: 10.6
BPM:201
Notes(hold): 1019(36)

1
口口口① |----|
口口口口 |----|
口口口口 |----|
口口口口 |①---|
2
口口口口 |①---|
口口口口 |----|
口①━< |②---|
口口口口 |----|

口口口口
口口②口
口②口口
口口口口
3
口口口口 |----|
口口口口 |----|
①口口口 |①---|
口口口口 |----|
4
口①━< |①---|
口口口口 |---②|
口口口口 |----|
口口口口 |----|

口②口口
口口口口
口口②口
口口口口
5
口口口口 |①---|
口口①口 |②---|
口④口口 |③---|
口②口③ |④---|
6
②口③口 |①---|
口①口口 |②---|
④口①口 |③---|
口③口口 |④---|
7
口④口③ |①---|
口①口口 |②---|
口口②口 |③---|
③口口① |④---|
8
口④④口 |①---|
口③③口 |②---|
②口②口 |③---|
口①口① |④---|
9
④口⑩③ |①-②-|
②⑧⑥① |③-④-|
④口⑤③ |⑤-⑥-⑦-|
②⑦⑨① |⑧-⑨-⑩-|
10
⑤⑮⑭⑥ |①②③④|
①⑬⑩② |⑤⑥⑦⑧|
⑦⑨⑫⑧ |⑨⑩⑪⑫|
③⑪⑯④ |⑬⑭⑮⑯|
11
⑤⑬⑫⑥ |①②③④|
①⑪⑭② |⑤⑥⑦⑧|
⑦⑮⑩⑧ |⑨⑩⑪⑫|
③⑨⑯④ |⑬⑭⑮⑯|
12
⑤⑬⑫⑥ |①②③④|
①⑨⑯② |⑤⑥⑦⑧|
⑦⑮⑩⑧ |⑨⑩⑪⑫|
③⑪⑭④ |⑬⑭⑮⑯|
13
⑤⑬⑫⑥ |①②③④|
①⑪⑭② |⑤⑥⑦⑧|
⑦⑮⑩⑧ |⑨⑩⑪⑫|
③⑨⑯④ |⑬⑭⑮⑯|
14
⑤⑬⑫⑥ |①②③④|
①⑨⑯② |⑤⑥⑦⑧|
⑦⑮⑩⑧ |⑨⑩⑪⑫|
③⑪⑭④ |⑬⑭⑮⑯|
15
⑤⑮⑫⑥ |①②③④|
①⑪⑭② |⑤⑥⑦⑧|
⑦⑬⑩⑧ |⑨⑩⑪⑫|
③⑨⑯④ |⑬⑭⑮⑯|
16
⑤⑬⑩⑥ |①②③④|
①⑮⑫② |⑤⑥⑦⑧|
⑦⑪⑯⑧ |⑨⑩⑪⑫|
③⑨⑭④ |⑬⑭⑮⑯|
17
⑤⑯⑫⑥ |①②③④|
①⑮⑪② |⑤⑥⑦⑧|
⑦⑩⑭⑧ |⑨⑩⑪⑫|
③⑨⑬④ |⑬⑭⑮⑯|
18
⑤⑮⑭⑥ |①②③④|
①⑬⑩② |⑤⑥⑦⑧|
⑦⑨⑫⑧ |⑨⑩⑪⑫|
③⑪⑯④ |⑬⑭⑮⑯|
19
⑤⑬⑫⑥ |①②③④|
①⑪⑭② |⑤⑥⑦⑧|
⑦⑮⑩⑧ |⑨⑩⑪⑫|
③⑨⑯④ |⑬⑭⑮⑯|
20
⑤⑬⑫⑥ |①②③④|
①⑨⑯② |⑤⑥⑦⑧|
⑦⑮⑩⑧ |⑨⑩⑪⑫|
③⑪⑭④ |⑬⑭⑮⑯|
21
⑤⑬⑫⑥ |①②③④|
①⑪⑭② |⑤⑥⑦⑧|
⑦⑮⑩⑧ |⑨⑩⑪⑫|
③⑨⑯④ |⑬⑭⑮⑯|
22
⑤⑬⑫⑥ |①②③④|
①⑨⑯② |⑤⑥⑦⑧|
⑦⑮⑩⑧ |⑨⑩⑪⑫|
③⑪⑭④ |⑬⑭⑮⑯|
23
⑤⑮⑫⑥ |①②③④|
①⑪⑭② |⑤⑥⑦⑧|
⑦⑬⑩⑧ |⑨⑩⑪⑫|
③⑨⑯④ |⑬⑭⑮⑯|
24
⑤⑬⑩⑥ |①②③④|
①⑮⑫② |⑤⑥⑦⑧|
⑦⑪⑯⑧ |⑨⑩⑪⑫|
③⑨⑭④ |⑬⑭⑮⑯|
25
⑤⑯⑫⑥ |①②③④|
①⑮⑪② |⑤⑥⑦⑧|
⑦⑩⑭⑧ |⑨⑩⑪⑫|
③⑨⑬④ |⑬⑭⑮⑯|
26
口口口口 |①-②-|
③口口① |--③-|
⑤口口⑤ |④---|
②口⑥④ |⑤-⑥-|
27
口③口① |①-②-|
④口②口 |③-④-|
口⑤⑤口 |⑤---|
口口口口 |----|
28
口口口口 |①---|
口口口口 |②---|
①④④① |③---|
④③②① |④---|
29
口口口口 |①---|
口口口口 |②---|
③口口③ |③---|
④③②① |④---|
30
①①①③ |①-②-|
口口⑤口 |--③-|
口⑤口口 |④---|
口④②口 |⑤---|
31
⑨口①⑤ |①-②-|
⑩②口⑥ |③-④-|
⑪口③⑦ |⑤⑥⑦⑧--------|
⑫④口⑧ |⑨⑩⑪⑫--------|
32
口口②口 |①---|
口④①口 |--②-|
口①④口 |③---|
口③口口 |④---|
33
⑤①口⑥ |--①-|
口口口口 |②-③④|
口口口④ |⑤-⑥-|
③⑧②⑦ |⑦-⑧-|
34
口②口口 |①---|
口①①口 |----|
②口口口 |②---|
口口口③ |③---|
35
①口口口 |①---|
口口②⑦ |②-③-|
③①口⑥ |④-⑤-|
口④⑤口 |⑥-⑦-|
36
口②口① |①---|
口①口口 |----|
②口口口 |②---|
口口口③ |③---|
37
①口口口 |①---|
口口②⑦ |②-③-|
③①口⑥ |④-⑤-|
口④⑤口 |⑥-⑦-|
38
口②口① |①---|
口①口口 |----|
②口口口 |②---|
口口口③ |③---|
39
①口口④ |①---|
口③②口 |②-③-|
口①口口 |----|
④③口口 |④---|
40
③①口口 |①---|
口口②口 |--②-|
口②口口 |----|
口口①③ |③---|
41
⑥③④口 |①-②-|
③②⑤口 |③-④-|
④⑤②① |⑤-⑥-|
口口①口 |⑦⑧⑨⑩|

口口口⑦
口口口⑧
口口口⑨
口口口⑩
42
口口口口 |①---|
口①口口 |----|
口口口口 |②---|
>━①口 |③---|

口②口口
口口口口
②>━③
口口③口
43
①口口口 |①---|
③口口② |②-③-|
口①口② |④---|
③>━④ |⑤⑥⑦⑧|

口口⑧口
口口⑦口
口口⑥口
口⑤⑤⑤
44
口>━① |①---|
口①口口 |----|
口口口口 |②---|
口口口口 |③---|

口②口③
>━③口
②口口口
口口口口
45
①口口口 |①---|
③口②口 |②-③-|
口①②口 |④---|
③口口口 |⑤⑥⑦⑧|

口口口口
口口口口
口口口口
>━④口

口⑤口⑧
口口口⑦
口口口⑥
口口⑤⑤
46
>━①口 |①---|
口口口口 |--②-|
①口口口 |----|
口口口口 |③---|

②③③口
③>━③
口②口口
口口口口
47
口>━④ |①---|
口口口② |②-③-|
①③口② |④---|
③①口口 |⑤⑥⑦⑧|

⑤口⑤⑤
口口⑥口
口口⑦口
口口⑧口
48
口①口口 |①---|
口口口口 |--②-|
①口口口 |----|
口>━① |③---|

③口口口
②>━③
口口口口
口②口③
49
口④口口 |①---|
口③⑦④ |--②③|
口②口⑥ |④-⑤-|
①口⑤口 |⑥-⑦-|
50
①━<① |①---|
口口口口 |----|
口口口口 |②---|
口口口口 |③---|

③③口口
口口口②
口口口口
口口口②
51
口口口口 |①---|
口②①口 |②---|
口①②口 |③---|
口口口口 |④---|

口口③口
③━<口
口口口④
口③④口
52
口口口② |①---|
①口③① |②-③-|
口①口口 |④---|
②<口口 |⑤-⑥-|

口口口口
口口口口
④<⑥口
④口口⑤
53
①②①② |①---|
③④③④ |②---|
①口口口 |③---|
口口口口 |④---|
54
口口口口 |①---|
口口口口 |--②-|
口①━< |----|
口口①① |③---|

口口口③
口③<口
口③口②
口口口口
55
口口口口 |①---|
口①①④ |--②③|
口口③② |④---|
④━<口 |⑤-⑥-|

口口口口
口口⑥口
口口口口
口口口⑤
56
口口②① |①---|
②<口口 |②---|
口口口口 |③---|
①口口口 |④---|

口口口口
③口口③
口③━<
口④④口
57
⑤口口④ |①---|
口口③② |--②③|
口①①口 |④-⑤-|
口口口口 |⑥-⑦⑧|

口口口口
口口口口
口口⑧口
⑥口⑦口
58
口口①口 |①---|
①━<口 |----|
口口口口 |②---|
口口口口 |③---|

口口口口
②口口②
口③<口
口口口②
59
口①口① |①---|
口口口口 |----|
口①①口 |②---|
口口口口 |③---|

②━<口
口口③口
口口口②
口口②③
60
①①①口 |①---|
口口口② |②-③-|
②<③口 |④---|
口口口口 |⑤-⑥-|

口口口口
口口⑥口
④口口⑤
④━<口
61
口口②① |①---|
②④⑤口 |②---|
④③口⑤ |③---|
①口口③ |④-⑤-|
62
①②⑤④ |①--②|
口口口③ |--③-|
口口③口 |--④-|
①②⑤④ |-⑤--|
63
③④⑤口 |①--②|
①②口口 |--③-|
②①口口 |--④-|
③④⑤口 |-⑤--|
64
⑤口口⑧ |①-②-|
①口④口 |③-④-|
口③口② |⑤-⑥-|
⑦口口⑥ |⑦-⑧-|
65
口①④口 |①②③④|
口⑤⑧口 |⑤⑥⑦⑧|
口⑦⑥口 |⑨---|
口③②口 |----|

口口口口
⑨━━<
>━━⑨
口口口口
66
口口口① |①---|
①②口口 |--②-|
口口②① |----|
①口口口 |----|
67
口口口① |①-②-|
口口②口 |③-④-|
口口口③ |----|
口口④口 |----|
68
口口口口 |①---|
口①①口 |----|
口②②口 |----|
口口口口 |②---|
699
口口口口 |----|
口口口口 |----|
①口口① |①---|
口口口口 |----|
70
①口口口 |①--②|
④口②③ |--③-|
口口④口 |④---|
口口口① |----|
71
口口口① |①-②-|
口口②口 |③-④-|
①口口③ |⑤---|
⑤口④口 |----|
72
口∨口口 |①---|
口┃口口 |②---|
口①口口 |③---|
口口口口 |④---|

口口口口
口口口口
>━②口
口口口口

口口口口
口口③口
口口┃口
口口∧口

口口口口
口④━<
口口口口
口口口口

口口口口
口口④口
口②③口
口口口口
73
⑥②口⑤ |①②③④|
⑧①口③ |⑤⑥⑦⑧|
④口口⑦ |⑨⑩⑪⑫|
口口口① |⑬⑭⑮⑯|

口⑯⑭口
口⑮⑬口
口⑫⑩口
口⑪⑨口
74
④口⑫③ |①-②③|
⑦口⑪② |④-⑤⑥|
口口⑧⑤ |⑦-⑧⑨|
①⑩⑥⑨ |⑩-⑪⑫|
75
⑤①口② |①--②|
⑧⑦口⑤ |③-④-|
①⑤⑧④ |⑤--⑥|
③口④⑥ |⑦-⑧-|
76
口①⑤② |①--②|
口口①⑥ |③-④-|
⑤⑦⑧④ |⑤--⑥|
口③④⑧ |⑦-⑧-|
77
①口口② |①--②|
口③①口 |③-④-|
口口口④ |⑤---|
口口④口 |⑥-⑦⑧|

口口⑤口
口口┃口
口口∧口
⑤口口口

口口⑥口
口口⑧口
口口⑥口
口⑥口⑦
78
口③口② |①--②|
①口口① |③-④-|
⑤口口④ |⑤---|
口口⑤口 |⑥-⑦⑧|

口口口口
口口口⑧
口⑥⑦口
口口口口
79
①口②口 |①--②|
口③①口 |③-④-|
口口口④ |⑤---|
⑤口⑤口 |⑥-⑦⑧|

口口口口
口口口⑧
口口⑦口
口⑥口口
80
口③⑥② |①--②|
①口①⑧ |③-④-|
⑦⑤口⑤ |⑤--⑥|
口⑥④口 |⑦-⑧-|
81
①⑥⑤② |①--②|
口③④口 |--③-|
口④③口 |④--⑤|
②⑥⑤① |--⑥-|
82
①━━< |①---|
口口口口 |----|
口口口口 |----|
>━━① |②③④⑤|

②口口口
口②⑤口
口④③口
口口口②
83
口口口② |①--②|
口口口口 |③-④-|
①口口④ |⑤--⑥|
①③口口 |--⑦-|

⑥⑤口口
口⑥⑦⑦
⑦⑦⑥口
口口⑤⑥
84
⑦⑤①② |①--②|
③口⑧口 |③-④-|
口口⑥⑤ |⑤--⑥|
①⑥④⑦ |--⑦⑧|
85
口口⑤② |①--②|
⑤口口① |③-④-|
⑥③口⑤ |⑤--⑥|
①口④口 |-⑦⑧⑨|

口口口口
口⑧口⑨
口口⑧口
口口口⑦
86
①⑦⑤② |①--②|
⑤口①口 |③-④-|
口口口⑥ |⑤--⑥|
③⑥④⑦ |--⑦-|
87
③口口口 |①--②|
④①②① |③-④-|
①②①口 |⑤--⑥|
口口④口 |--⑦-|

口口⑥⑤
口⑦口口
口口⑦口
⑤⑥口口
88
口口口口 |①---|
口口口① |②③④⑤|
①口口口 |⑥⑦⑧⑨|
口口口口 |⑩⑪⑫⑬|

④口口⑨
⑥⑩③⑬
⑫②⑪⑦
⑧口口⑤
89
口①②口 |①---|
口口②口 |----|
口②口口 |②---|
口②口口 |----|
90
⑤⑮⑭⑥ |①②③④|
①⑬⑩② |⑤⑥⑦⑧|
⑦⑨⑫⑧ |⑨⑩⑪⑫|
③⑪⑯④ |⑬⑭⑮⑯|
91
⑤⑬⑫⑥ |①②③④|
①⑪⑭② |⑤⑥⑦⑧|
⑦⑮⑩⑧ |⑨⑩⑪⑫|
③⑨⑯④ |⑬⑭⑮⑯|
92
⑤⑬⑫⑥ |①②③④|
①⑨⑯② |⑤⑥⑦⑧|
⑦⑮⑩⑧ |⑨⑩⑪⑫|
③⑪⑭④ |⑬⑭⑮⑯|
93
⑤⑬⑫⑥ |①②③④|
①⑪⑭② |⑤⑥⑦⑧|
⑦⑮⑩⑧ |⑨⑩⑪⑫|
③⑨⑯④ |⑬⑭⑮⑯|
94
⑤⑬⑫⑥ |①②③④|
①⑨⑯② |⑤⑥⑦⑧|
⑦⑮⑩⑧ |⑨⑩⑪⑫|
③⑪⑭④ |⑬⑭⑮⑯|
95
⑤⑮⑫⑥ |①②③④|
①⑪⑭② |⑤⑥⑦⑧|
⑦⑬⑩⑧ |⑨⑩⑪⑫|
③⑨⑯④ |⑬⑭⑮⑯|
96
⑤⑬⑩⑥ |①②③④|
①⑮⑫② |⑤⑥⑦⑧|
⑦⑪⑯⑧ |⑨⑩⑪⑫|
③⑨⑭④ |⑬⑭⑮⑯|
97
⑤⑯⑫⑥ |①②③④|
①⑮⑪② |⑤⑥⑦⑧|
⑦⑩⑭⑧ |⑨⑩⑪⑫|
③⑨⑬④ |⑬⑭⑮⑯|
98
口口口口 |①--②|
①口口③ |--③-|
⑥口口口 |④---|
④口⑤② |⑤----⑥--|
99
②口口③ |--①----②--|
口④①口 |----------------③------------------④----|
口口⑤口 |---⑤----|
⑥⑦⑧⑨ |⑥⑦⑧⑨|
100
口①口口 |①---|
口口口口 |----|
口口口口 |----|
口口口口 |----|
最終更新:2024年10月15日 13:42