アットウィキロゴ
ここからよろしく大作戦143
BEMANI Sound Team "あさき隊"

BASIC

Level: 4
BPM: 184
Notes: 360

1
口口口口 |----|
口口口口 |----|
口口口口 |----|
口口口口 |----|
2
①口口② |①---|
口口口口 |--②-|
口口口口 |----|
③口口口 |③---|
3
口口口口 |--①-|
口②口口 |----|
口口③口 |②---|
口口口① |③---|
4
口口口口 |①---|
口③口口 |②---|
口②口口 |③---|
口①口口 |----|
5
口口口① |①---|
②口口口 |②---|
口口口③ |③---|
④口口口 |④---|
6
口口口口 |①---|
口口③口 |②---|
口口②口 |③---|
口口①口 |----|
7
①口口口 |①---|
口口口② |②---|
③口口口 |③---|
口口口④ |④---|
8
口口口口 |①---|
口③口口 |②---|
口②口口 |③---|
口①口口 |----|
9
口口口① |①---|
②口口口 |②---|
口口口③ |③---|
④口口口 |④---|
10
口②②口 |--①-|
口口口口 |----|
口①①口 |②---|
③口口③ |--③-|
11
口口口口 |----|
①口口① |①---|
口②③口 |②---|
口口口口 |③---|
12
①①口口 |①---|
②②口口 |----|
口口口口 |②---|
口口口口 |----|
13
口口口口 |①---|
口口口③ |②---|
口口口② |③---|
口口口① |----|
14
口口口口 |①---|
口①口口 |----|
口口②口 |②---|
口口口口 |----|
15
口口口口 |①---|
口③③口 |----|
口②②口 |②---|
口①口口 |③---|
16
①口口① |①---|
口口口口 |----|
口口口口 |②---|
口②口口 |----|
17
口口口口 |①---|
口②口口 |----|
口口①口 |②---|
口口口口 |----|
18
口口口① |①---|
口口②口 |②---|
口③口口 |③---|
④口口口 |④---|
19
④口口口 |①---|
口③口口 |②---|
口口②口 |③---|
口口口① |④---|
20
口口①① |①---|
口口口口 |----|
口口口口 |②---|
②②口口 |----|
21
口口口口 |①---|
口口③口 |②---|
口口②口 |③---|
口口①口 |----|
22
①口口口 |①---|
口口口口 |----|
口②口口 |②---|
口口口口 |----|
23
口口①口 |①---|
口口口口 |----|
口口口② |②---|
口口口口 |----|
24
口口口口 |①---|
口①口口 |----|
口口口口 |②---|
口口②口 |----|
25
口口口口 |①---|
口口②口 |----|
口①口口 |②---|
口口口口 |----|
26
①①口口 |①---|
口口②② |----|
口口口口 |②---|
口口口口 |----|
27
口口口口 |①---|
口口口口 |----|
①①口口 |②---|
口口②② |----|
28
口口口口 |--①-|
口①②口 |----|
口②①口 |②---|
口口口口 |----|
29
口口口口 |①---|
①口口② |--②-|
②口口① |----|
口口口口 |----|
30
口①口口 |①---|
口口②口 |②---|
口③口口 |③---|
口口④口 |④---|
31
口口口口 |①---|
口①口② |--②-|
②口①口 |----|
口口口口 |----|
32
①①口口 |①---|
口口口口 |--②-|
口口口口 |----|
③③②② |③---|
33
②②①① |--①-|
口口口口 |----|
口口口口 |②---|
口口口口 |----|
34
④④④④ |①---|
口③口口 |②---|
口②②口 |③---|
口①①① |④---|
35
口口口口 |①---|
口②①口 |--②-|
口③③口 |----|
口口口口 |③---|
36
①口口① |①---|
口口口口 |②---|
口口口口 |③---|
口②③④ |④---|
37
口①①口 |①---|
口口口口 |②---|
④③②口 |③---|
口口口口 |④---|
38
①口口① |①---|
口②③④ |②---|
口口口口 |③---|
口口口口 |④---|
39
口①②口 |①---|
口口口口 |②---|
口③③口 |----|
口口口口 |③---|
40
①口口① |①---|
口口口口 |②---|
口口口口 |③---|
④③②口 |④---|
41
口①①口 |①---|
口口口口 |②---|
口②③④ |③---|
口口口口 |④---|
42
①口口① |①---|
④③②口 |②---|
口口口口 |③---|
口口口口 |④---|
43
口口①口 |①---|
口口口口 |----|
口口口口 |----|
口②口口 |②---|
44
口口口口 |①---|
口口①① |----|
口口②② |②---|
口口口口 |----|
45
口口口口 |①---|
口口②口 |----|
口口口口 |②---|
口口①① |----|
46
口口口口 |①---|
①①口口 |----|
②②口口 |②---|
口口口口 |----|
47
口口口口 |①---|
口②口口 |----|
口口口口 |②---|
①①口口 |----|
48
②口②口 |①---|
口口①口 |----|
口口口口 |②---|
口口口口 |----|
49
口口口口 |①---|
口①口① |----|
②口②口 |②---|
口口口口 |----|
50
口口口口 |①---|
口②②口 |----|
口口口口 |②---|
口①口① |----|
51
②口口② |①---|
口口口口 |----|
口口口口 |②---|
口①①口 |----|
52
口①口口 |①---|
口口②口 |----|
口口口口 |②---|
口口口口 |----|
53
口口口口 |①---|
口口口口 |----|
口①口口 |②---|
口口②口 |----|
54
①口口口 |①---|
口口口② |----|
口口口口 |②---|
口口口口 |----|
55
口口口口 |①---|
口口口口 |----|
①口口口 |②---|
口口口② |----|
56
口口口口 |①---|
口②②口 |----|
口①①口 |②---|
口口口口 |----|
57
②口口② |①---|
口口口口 |----|
口口口口 |②---|
①口口① |----|
58
口口口口 |①---|
②口口② |----|
①口口① |②---|
口口口口 |----|
59
口②②口 |①---|
口口口口 |----|
口口口口 |②---|
口①①口 |----|
60
口口口口 |①---|
口口口口 |②---|
口口口口 |③---|
①②③④ |④---|
61
口口口口 |①---|
口口口口 |②---|
①②③④ |③---|
口口口口 |④---|
62
口口口口 |①---|
①②③④ |②---|
口口口口 |③---|
口口口口 |④---|
63
①②③④ |①---|
口口口口 |②---|
口口口口 |③---|
口口口口 |④---|
64
口口口口 |①---|
口口口口 |②---|
口口口口 |③---|
④③②① |④---|
65
口口口口 |①---|
口口口口 |②---|
④③②① |③---|
口口口口 |④---|
66
口口口口 |①---|
④③②① |②---|
口口口口 |③---|
口口口口 |④---|
67
④③②① |①---|
口口口口 |②---|
口口口口 |③---|
口口口口 |④---|
68
口口口口 |①---|
口口①口 |----|
口口口口 |----|
口口口口 |----|
69
口口口口 |①---|
口口口口 |----|
口①口口 |----|
口口口口 |----|
70
口口口口 |①---|
口口口口 |----|
口口①口 |----|
口口口口 |----|
71
口口口口 |①---|
口①口口 |----|
口口口口 |----|
口口口口 |----|
72
口④口口 |①---|
口口③口 |②---|
口②口口 |③---|
口口①口 |④---|
73
口口①口 |①---|
口②口口 |②---|
口④④口 |③---|
③口口③ |④---|
74
①口口① |①---|
口口口口 |②---|
口口口口 |③---|
口②③④ |④---|
75
口①①口 |①---|
口口口口 |②---|
④③②口 |③---|
口口口口 |④---|
76
①口口① |①---|
口②③④ |②---|
口口口口 |③---|
口口口口 |④---|
77
口①②口 |①---|
口口口口 |②---|
口③③口 |----|
口口口口 |③---|
78
①口口① |①---|
口口口口 |②---|
口口口口 |③---|
④③②口 |④---|
79
口①①口 |①---|
口口口口 |②---|
口②③④ |③---|
口口口口 |④---|
80
①口口① |①---|
④③②口 |②---|
口口口口 |③---|
口口口口 |④---|
81
口口①口 |①---|
口口口口 |----|
口口口口 |----|
口②口口 |②---|
82
口口口口 |①---|
口口①① |----|
口口②② |②---|
口口口口 |----|
83
口口口口 |①---|
口口②口 |----|
口口口口 |②---|
口口①① |----|
84
口口口口 |①---|
①①口口 |----|
②②口口 |②---|
口口口口 |----|
85
口口口口 |①---|
口②口口 |----|
口口口口 |②---|
①①口口 |----|
86
②口②口 |①---|
口口①口 |----|
口口口口 |②---|
口口口口 |----|
87
口口口口 |①---|
口①口① |----|
②口②口 |②---|
口口口口 |----|
88
口口口口 |①---|
口②②口 |----|
口口口口 |②---|
口①口① |----|
89
②口口② |①---|
口口口口 |----|
口口口口 |②---|
口①①口 |----|
90
口口口口 |①---|
口③口口 |②---|
口②口口 |③---|
口①口口 |----|
91
口口口① |①---|
②口口口 |②---|
口口口③ |③---|
④口口口 |④---|
92
口口口口 |①---|
口口③口 |②---|
口口②口 |③---|
口口①口 |----|
93
①口口口 |①---|
口口口② |②---|
③口口口 |③---|
口口口④ |④---|
94
口口口口 |①---|
口③口口 |②---|
口②口口 |③---|
口①口口 |----|
95
口口口① |①---|
②口口口 |②---|
口口口③ |③---|
④口口口 |④---|
96
口②②口 |--①-|
口口口口 |----|
口①①口 |②---|
③口口③ |--③-|
97
口口口口 |----|
①②③① |①---|
口②③口 |②---|
口口口口 |③---|

accuracy: 99.5%
最終更新:2024年09月08日 16:13