アットウィキロゴ
ここからよろしく大作戦143
BEMANI Sound Team "あさき隊"

ADVANCED

Level: 7
BPM: 184
Notes: 680

1
口口口口 |----|
口口口口 |----|
口口口口 |----|
口口口口 |----|
2
①①口口 |①-②-|
④④口⑧ |③-④-|
⑦⑦⑥⑤ |⑤-⑥-|
口口③② |⑦-⑧-|
3
②②⑦口 |①-②-|
口④①口 |③---|
口口⑤口 |④-⑤-|
口⑥③③ |⑥-⑦-|
4
①①⑤口 |①---|
③③口口 |②---|
②②口④ |③---|
口口口口 |④-⑤-|
5
口①口口 |--①-|
⑤口④口 |②-③-|
口③口口 |④-⑤-|
⑦口②⑥ |⑥-⑦-|
6
口口①① |①---|
口口口口 |②---|
口口②②
口口口口

口口④口
口口③③
口口口口 |③---|
口口口口 |--④-|
7
口口口口 |--①-|
口④③⑦ |②-③-|
②口口口 |④-⑤-|
口⑥①⑤ |⑥-⑦-|
8
①①⑤口 |①---|
③③口口 |②---|
②②口④ |③---|
口口口口 |④-⑤-|
9
口①口口 |--①-|
⑤口④口 |②-③-|
口③口口 |④-⑤-|
⑦口②⑥ |⑥-⑦-|
10
①②③口 |--①-|
口④⑤口 |②-③-|
口④⑤口 |④-⑤-|
⑥⑥口口 |--⑥-|
11
口③②① |--①-|
⑤口口④ |②-③-|
⑤口口④ |④---|
口口口口 |⑤---|
12
口口④④ |①---|
口②口口 |--②-|
口口③口 |③---|
口口①口 |--④-|
13
口①口口 |--①-|
⑤⑤②口 |②-③-|
口③口口 |④---|
口口④口 |⑤---|
14
口④口② |①---|
口⑥口口 |②-③-|
口口①① |④-⑤-|
③口⑤口 |--⑥-|
15
③口③口 |--①-|
口口口口 |----|
口口①口 |②---|
口②口② |③---|
16
口口口④ |①-②-|
②⑤口① |----|
②口③① |③---|
口口口口 |④-⑤-|
17
①①口口 |----|
口口③③ |①---|
口口口口 |②---|
口口②② |③---|
18
口③③② |①---|
①口口口 |②---|
口口口② |③---|
①④④口 |④---|
19
②⑤④口 |①---|
口①①口 |②-③-|
口①①口 |--④-|
口口口③ |--⑤-|
20
⑥⑥口① |①---|
口②⑤口 |②-③-|
口口口口 |④---|
④口③口 |⑤-⑥-|
21
口口①① |--①-|
口④口口 |②-③-|
⑥③口口 |④---|
口②口⑤ |⑤-⑥-|
22
口口⑤⑤ |①---|
口③口① |②---|
口口②口 |③---|
口口④口 |④-⑤-|
23
②②口口 |----|
口口口口 |①---|
口口口口 |②---|
①①③③ |③---|
24
口口⑤口 |①---|
口①①口 |----|
④③②口 |②-③-|
口口口口 |④-⑤-|
25
④④口口 |--①-|
口②③口 |②-③-|
口口口⑤ |--④-|
口①口⑤ |--⑤-|
26
口口口口 |----|
口②②口 |①-②-|
①③③口 |--③-|
①口④口 |--④-|
27
①①②② |①---|
口③⑥口 |②---|
口⑤④口 |③-④-|
口口口口 |⑤-⑥-|
28
①口口① |--①-|
③③口口 |--②-|
口口④④ |③---|
②口口② |④---|
29
③口④③ |①---|
口⑤口口 |②-③-|
口②口口 |----|
口①①口 |④-⑤-|
30
口②口口 |①---|
口口③口 |②-③-|
⑥④①口 |④---|
口口口⑤ |⑤-⑥-|
31
口③③口 |①---|
口④口① |②-③-|
口口⑤口 |----|
口②口口 |④-⑤-|
32
①口口② |①---|
口③口口 |--②-|
①口口② |----|
口③口口 |③---|
33
口②口口 |--①-|
口口①口 |----|
口②口口 |②---|
口口①口 |----|
34
④④口口 |①---|
④④口③ |②---|
口口②② |③---|
口①①① |④---|
35
口口口① |①-②-|
口口②口 |③-④-|
口③口口
④口口口

口口⑦⑦
口口口口
口口⑥⑥ |--⑤-|
口口⑤⑤ |⑥-⑦-|
36
①⑥⑥口 |--①-|
⑤口口② |②-③-|
口④口口 |④-⑤-|
③口口口 |--⑥-|
37
⑥口口口 |--①-|
口②口⑤ |②-③-|
⑥口④口 |④-⑤-|
口①①③ |--⑥-|
38
口②③① |--①-|
口口⑤口 |②-③-|
口④口① |④-⑤-|
口口⑥⑥ |--⑥-|
39
⑤⑤口口 |--①-|
①口口口 |②---|
④④口② |--③-|
③③口口 |④-⑤-|
40
口⑥⑥① |--①-|
口②口⑤ |②-③-|
口口④口 |④-⑤-|
口口口③ |--⑥-|
41
⑥口口⑥ |--①-|
⑤口②④ |②-③-|
⑤③口④ |④-⑤-|
口①①口 |--⑥-|
42
口③②口 |----|
口④④口 |①-②-|
口④④口 |--③-|
①②③① |--④-|
43
口口③口 |----|
口②口口 |----|
①口口口 |--①-|
口口口口 |②-③-|
44
①④④口 |----|
口口口③ |①---|
口口口口 |②-③-|
口口②口 |--④-|
45
口⑥口口 |--①-|
口口⑤口 |②-③-|
①口②④ |--④-|
口③口口 |⑤-⑥-|
46
④④④① |----|
口口口口 |①---|
②口口口 |②-③-|
口③口口 |--④-|
47
口口口口 |--①-|
⑤①①① |--②-|
口②②④ |--③-|
③口口口 |④-⑤-|
48
口②②① |①---|
口口口口 |----|
口口口口 |②---|
口口口口 |----|
49
口口口口 |①---|
②口④② |②---|
③④口③ |③---|
口①①口 |④---|
50
②口口② |①---|
口①口口 |----|
口口①口 |②---|
口口口口 |----|
51
④④⑦⑦ |①-②-|
口口②② |--③-|
⑥⑥⑤⑤ |④-⑤-|
口①③③ |⑥-⑦-|
52
口口⑥口 |--①-|
口①②③ |②-③-|
口口口口 |④-⑤-|
口④⑤口 |--⑥-|
53
②①口⑤ |①-②-|
⑥口口口 |③-④-|
口④③⑦ |⑤-⑥-|
⑧口口口 |⑦-⑧-|
54
口口③③ |①-②-|
口②口口 |--③-|
口口口口
口口①口

口口口口
口口口口
④④口口 |--④-|
口口⑤⑤ |--⑤-|
55
口口④④ |--①-|
口①口口 |②-③-|
口口②口 |④---|
口③口口 |----|
56
口口④④ |①-②-|
①①口口 |--③-|
②②⑤⑤ |--④-|
口口③③ |--⑤-|
57
口口口口 |--①-|
②②①① |--②-|
口口口口 |③-④-|
⑥⑤④③ |⑤-⑥-|
58
④④口口 |①-②-|
口口①① |--③-|
③③②② |--④-|
⑤⑤口口 |--⑤-|
59
⑥口口⑦ |--①-|
口①口⑤ |②-③-|
④口②口 |④-⑤-|
口口口③ |⑥-⑦-|
60
口①口口 |①---|
口口②口 |----|
口口口口 |--②-|
口口口口 |----|
61
口口口③ |①---|
④口口口 |--②-|
口①口⑤ |③-④-|
⑥②口口 |⑤-⑥-|
62
口⑧①口 |①-②-|
口②⑦口 |③-④-|
口⑥③口 |⑤-⑥-|
口④⑤口 |⑦-⑧-|
63
④口口口 |①-②-|
口⑥口③ |③-④-|
②口⑤口 |⑤-⑥-|
口口⑦① |⑦---|
64
口口口① |①---|
口口口口 |----|
②口口③ |----|
口口口口 |②-③-|
65
口⑦⑧口 |①-②-|
口⑤⑥口 |③-④-|
口③④口 |⑤-⑥-|
口①②口 |⑦-⑧-|
66
口口口口 |-①--|
①③口② |----|
①③口② |②---|
口口口口 |--③-|
67
口口口⑤ |----|
④口①口 |①---|
口口①③ |②-③-|
②口口口 |④-⑤-|
68
④口口口 |----|
口①口口 |①---|
口口口② |②-③-|
口口③口 |--④-|
69
口口①口 |--①-|
口②⑤口 |②-③-|
口④③口 |④-⑤-|
⑥口口口 |--⑥-|
70
口⑤口⑥ |--①-|
④①口口 |②-③-|
口口③口 |④-⑤-|
口口口② |--⑥-|
71
口口口口 |--①-|
④④口口 |----|
口③③口 |--②-|
①口②② |③-④-|
72
口口①① |----|
口口口口 |①---|
②④④③ |②-③-|
②口口③ |--④-|
73
①①⑥⑥ |--①-|
③③②② |②---|
口口⑤⑤ |③-④-|
口口④④ |⑤-⑥-|
74
①⑥⑥口 |--①-|
⑤口口② |②-③-|
口④口口 |④-⑤-|
③口口口 |--⑥-|
75
⑥口口口 |--①-|
口②口⑤ |②-③-|
⑥口④口 |④-⑤-|
口①①③ |--⑥-|
76
口②③① |--①-|
口口⑤口 |②-③-|
口④口① |④-⑤-|
口口⑥⑥ |--⑥-|
77
⑤⑤口口 |--①-|
①口口口 |②---|
④④口② |--③-|
③③口口 |④-⑤-|
78
口⑥⑥① |--①-|
口②口⑤ |②-③-|
口口④口 |④-⑤-|
口口口③ |--⑥-|
79
⑥口口⑥ |--①-|
⑤口②④ |②-③-|
⑤③口④ |④-⑤-|
口①①口 |--⑥-|
80
口③②口 |----|
口④④口 |①-②-|
口④④口 |--③-|
①②③① |--④-|
81
口口③口 |----|
口②口口 |----|
①口口口 |--①-|
口口口口 |②-③-|
82
①④④口 |----|
口口口③ |①---|
口口口口 |②-③-|
口口②口 |--④-|
83
口⑥口口 |--①-|
口口⑤口 |②-③-|
①口②④ |--④-|
口③口口 |⑤-⑥-|
84
④④④① |----|
口口口口 |①---|
②口口口 |②-③-|
口③口口 |--④-|
85
口口口口 |--①-|
⑤①①① |--②-|
口②②④ |--③-|
③口口口 |④-⑤-|
86
口②②① |①---|
口口口口 |----|
口口口口 |②---|
口口口口 |----|
87
口口口口 |①---|
②口④② |②---|
③④口③ |③---|
口①①口 |④---|
88
②口口② |①---|
口①口口 |----|
口口①口 |②---|
口口口口 |----|
89
口口口口 |①-②-|
④口口② |--③-|
口口⑤口 |④-⑤-|
⑥①⑦③ |⑥-⑦-|
90
①①⑤口 |①---|
③③口口 |②---|
②②口④ |③---|
口口口口 |④-⑤-|
91
口①口口 |--①-|
⑤口④口 |②-③-|
口③口口 |④-⑤-|
⑦口②⑥ |⑥-⑦-|
92
口口①① |①---|
口口口口 |②---|
口口②②
口口口口

口口④口
口口③③
口口口口 |③---|
口口口口 |--④-|
93
口口口口 |--①-|
口④③⑦ |②-③-|
②口口口 |④-⑤-|
口⑥①⑤ |⑥-⑦-|
94
①①⑤口 |①---|
③③口口 |②---|
②②口④ |③---|
口口口口 |④-⑤-|
95
口①口口 |--①-|
⑤口④口 |②-③-|
口③口口 |④-⑤-|
⑦口②⑥ |⑥-⑦-|
96
①②③口 |--①-|
口④⑤口 |②-③-|
口④⑤口 |④-⑤-|
⑥⑥口口 |--⑥-|
97
口③②① |--①-|
⑤⑤④④ |②-③-|
⑤⑤④④ |④---|
口口口口 |⑤---|

accuracy: 99.5%
最終更新:2024年09月08日 16:13