アットウィキロゴ
ここからよろしく大作戦143
BEMANI Sound Team "あさき隊"

EXTREME

Level: 9.3
BPM: 184
Notes: 978

1
口口口口 |----|
口口口口 |----|
口口口口 |----|
口口口口 |----|
2
①口口① |①-②-|
⑦⑧口⑦ |③-④-|
口⑤⑥口 |⑤-⑥-|
④②③④ |⑦-⑧-|
3
⑥⑤⑤⑪ |①-②-|
⑩⑧①⑦ |③-④-|
②④⑨③ |⑤-⑥⑦|
口②③口 |⑧⑨⑩⑪|
4
口口⑤⑤ |①---|
口口③口 |②---|
①③口口 |③---|
④①②② |④-⑤-|
5
③①⑥口 |--①-|
①③口⑥ |②-③-|
⑤⑦④② |④-⑤-|
⑦⑤②④ |⑥-⑦-|
6
⑤⑤口① |①---|
②②①口 |②---|
口口③口 |③---|
口③口④ |④-⑤-|
7
⑥口③① |--①-|
口⑥①③ |②-③-|
④②⑤⑦ |④-⑤-|
②④⑦⑤ |⑥-⑦-|
8
口①②口 |①---|
①口口② |②---|
口口口口
口口口口

⑤⑤口口
口口③口
口③口口 |③---|
口口口④ |④-⑤-|
9
口⑥①③ |--①-|
⑥口③① |②-③-|
②④⑦⑤ |④-⑤-|
④②⑤⑦ |⑥-⑦-|
10
①口①⑤ |--①-|
口②口② |②-③-|
③④口⑤ |④-⑤-|
④③⑥⑥ |--⑥-|
11
②①口口 |--①-|
①②口口 |②-③-|
口⑤③④ |④---|
④口⑤口 |⑤---|
12
②③口⑥ |①---|
口口口③ |②-③-|
⑤口④口 |④---|
口①口① |⑤-⑥-|
13
②③⑤口 |--①-|
口口③④ |②-③-|
⑤口口② |④---|
口口①口 |⑤---|
14
②③⑦口 |①---|
口①④⑤ |②-③-|
⑥口①② |④-⑤-|
口⑦③口 |⑥-⑦-|
15
②③⑤口 |--①-|
口①⑤口 |②-③-|
口⑤①口 |④---|
④⑤口④ |⑤---|
16
口口口④ |①-②-|
①①⑤② |----|
①口②② |③---|
③口口口 |④-⑤-|
17
①①口口 |----|
口口③口 |①---|
口③口口 |②---|
口口②② |③---|
18
③③①口 |①---|
①①口③ |②---|
④口②② |③---|
口②④④ |④---|
19
口口②① |①---|
②④①⑤ |②-③-|
口①④③ |--④-|
①③口⑤ |--⑤-|
20
⑤⑥⑥② |①---|
③④①口 |②-③-|
口口口口 |④---|
③④①口 |⑤-⑥-|
21
⑤口口② |--①-|
口口口⑤ |②-③-|
①②③④ |④---|
口口⑥口 |⑤-⑥-|
22
口①①② |①---|
口口口口 |②---|
口口口口
②②口口

④口⑤口
口③口⑤
口③口口 |③---|
口口④口 |④-⑤-|
23
③②口① |----|
②③①口 |①---|
③口口① |②---|
口口口口 |③---|
24
⑤口口② |①---|
口口⑥③ |②---|
口口④⑤ |③-④-|
口①①口 |⑤-⑥-|
25
⑤口口② |--①-|
②⑥⑥⑥ |②-③-|
①③口口 |--④-|
口④④口 |⑤-⑥-|
26
④②②① |----|
口口口口 |①-②-|
①①①口 |--③-|
③口⑤③ |④-⑤-|
27
⑦③④⑧ |①---|
②②①① |②---|
②⑤⑥① |③④⑤⑥|
⑨口口⑩ |⑦⑧⑨⑩|
28
⑤④④⑤ |①-②-|
②②②② |--③-|
③④④③ |④---|
口①①口 |⑤---|
29
④③③④ |①---|
①②②① |②-③-|
③口口③ |----|
⑤①①⑤ |④-⑤-|
30
⑤④④⑤ |①---|
①②②① |②-③-|
④①①④ |④---|
⑥③③⑥ |⑤-⑥-|
31
口口⑦口 |①---|
④②③① |②-③-|
口⑥①⑤ |④-⑤-|
⑧②③⑨ |⑥⑦⑧⑨|
32
①③⑨⑥ |①-②③|
⑧⑤④⑥ |④⑤⑥-|
①⑩②⑦ |-⑦⑧⑨|
⑩⑪口口 |⑩--⑪|
33
④②口口 |①②③-|
口口⑤口 |④⑤⑥⑦|
⑥口①⑦
口口③③

口⑭⑨⑪
⑧⑧口口
口⑩⑬口 |⑧-⑨⑩|
⑫口口口 |⑪⑫⑬⑭|
34
④④④④ |①---|
口③口口 |②---|
②口口② |③---|
口①①① |④---|
35
口口口口 |①-②-|
②口口① |③-④-|
口口口口
④口口③

口口⑦口
口⑥口⑦
⑤口⑥口 |--⑤-|
口⑤口口 |⑥-⑦-|
36
⑤①⑥④ |--①-|
①口④⑥ |②-③-|
⑤③口② |④-⑤-|
③口②口 |--⑥-|
37
⑤①⑥⑤ |--①-|
口①③⑥ |②-③-|
④口②④ |④-⑤-|
⑥③②口 |--⑥-|
38
④①⑥④ |--①-|
①③②⑥ |②-③-|
口②③⑥ |④-⑤-|
口口⑤① |--⑥-|
39
⑤口④口 |--①-|
①⑤②④ |②---|
①口②口 |--③-|
口①③③ |④-⑤-|
40
口⑥⑥① |--①-|
②口③口 |②-③-|
口④③① |④-⑤-|
②④⑤⑤ |--⑥-|
41
口⑥⑥④ |--①-|
③①②④ |②-③-|
③口口② |④-⑤-|
①⑤⑤口 |--⑥-|
42
③口口② |----|
④③③④ |①-②-|
口②②口 |--③-|
①④④① |--④-|
43
口③口口 |----|
口口②口 |----|
口①口口 |--①-|
口口口口 |②-③-|
44
④④①① |----|
口口口口 |①---|
口口③口 |②-③-|
②②④④ |--④-|
45
⑤⑤④④ |--①-|
①②口③ |②-③-|
①②口③ |--④-|
口口口口 |--⑤-|
46
口⑤⑤⑤ |①---|
口②②口 |②---|
③口口④ |③-④-|
口①①口 |--⑤-|
47
②口口口 |--①-|
口口⑤口 |--②-|
②④口口 |--③-|
①①①③ |④-⑤-|
48
口①②口 |①---|
口口口② |----|
口③②口 |②---|
口口口口 |③---|
49
③③口口 |①---|
口①②口 |②---|
①口口口 |③---|
口①④④ |④---|
50
口口①② |①---|
口口②① |----|
②①口口 |②---|
①②口口 |----|
51
口⑦②口 |①-②-|
⑤①④⑥ |--③-|
⑦⑤①④ |④-⑤-|
③口⑥口 |⑥-⑦-|
52
口口口④ |--①-|
口口③口 |②-③-|
口口②⑤ |④-⑤-|
⑥口口① |--⑥-|
53
③口口口 |①-②-|
口②口口 |③-④-|
④①口口
口口口口

口⑥⑤口
⑥口口⑤
口⑧⑦口 |⑤-⑥-|
⑧口口⑦ |⑦-⑧-|
54
④口口③ |①-②-|
口②①口 |--③-|
口口口口 |--④-|
口②①⑤ |--⑤-|
55
口④④口 |--①-|
④①口④ |②-③-|
口口②口 |④---|
口③口口 |----|
56
口口口口 |①-②-|
口②⑤⑤ |--③-|
①②④④ |--④-|
①口③③ |--⑤-|
57
①①口口 |--①-|
②②口口 |--②-|
⑥口④口 |③-④-|
口⑤口③ |⑤-⑥-|
58
③口①① |①-②-|
③④②② |--③-|
口④口口 |--④-|
口口⑤⑤ |--⑤-|
59
②口口③ |--①-|
⑧⑨⑩⑪ |②-③-|
④⑤⑥⑦ |④⑤⑥⑦|
①口口口 |⑧⑨⑩⑪|
60
口①②口 |①---|
口口口口 |----|
口④口口 |--②-|
口③口口 |--③④|
61
⑤口口口 |①---|
口①②口 |--②③|
⑦口③口 |④-⑤-|
口口④⑥ |⑥-⑦-|
62
口⑥口① |①-②-|
口②⑤口 |③-④-|
口⑧口③ |⑤-⑥-|
口④⑦口 |⑦-⑧-|
63
口口⑧⑦ |①-②③|
②⑥⑨① |④-⑤-|
③口⑩口 |⑥-⑦-|
④口口⑤ |⑧⑨⑩-|
64
①口口口 |①---|
口口口口 |----|
口口⑤④ |----|
②③口口 |②③④⑤|
65
⑤⑥④③ |①②③④|
①②⑧⑦ |⑤⑥⑦⑧|
⑨⑩⑯⑮ |⑨⑩⑪⑫|
⑬⑭⑫⑪ |⑬⑭⑮⑯|
66
①④④① |-①--|
⑦②③⑦ |②-③-|
口口口口 |④-⑤-|
口⑤⑥口 |⑥-⑦-|
67
③⑩⑪③ |①-②-|
口⑥⑦口 |③---|
口①②口 |④⑤⑥⑦|
④⑧⑨⑤ |⑧⑨⑩⑪|
68
③⑤口口 |①---|
口口口② |②---|
①④口口 |③-④-|
口口口口 |--⑤-|
69
⑥口①口 |--①-|
口口⑤口 |②-③-|
口口②④ |④-⑤-|
口口③口 |--⑥-|
70
口⑥⑤① |--①-|
⑥④口口 |②-③-|
③口口口 |④-⑤-|
口②口口 |--⑥-|
71
②⑧⑤口 |--①-|
口⑥⑨③ |②-③-④-|
④⑩⑦① |⑤-⑥-⑦-|
口口①口 |⑧-⑨-⑩-|
72
⑤口③① |①---|
②⑤口③ |②---|
④口⑤① |③-④-|
②④口⑤ |--⑤-|
73
口①⑥③ |--①-|
①⑤③⑥ |②---|
④口⑤② |③-④-|
口④②口 |⑤-⑥-|
74
④口⑤③ |----|
口口③⑤ |①-②-|
④②口① |③-④-|
②口①口 |--⑤-|
75
⑤①⑥⑤ |--①-|
口①③⑥ |②-③-|
④口②④ |④-⑤-|
⑥③②口 |--⑥-|
76
④①⑥④ |--①-|
①③②⑥ |②-③-|
口②③⑥ |④-⑤-|
口口⑤① |--⑥-|
77
⑤口④口 |--①-|
①⑤②④ |②---|
①口②口 |--③-|
口①③③ |④-⑤-|
78
口⑥⑥① |--①-|
②口③口 |②-③-|
口④③① |④-⑤-|
②④⑤⑤ |--⑥-|
79
口⑥⑥④ |--①-|
③①②④ |②-③-|
③口口② |④-⑤-|
①⑤⑤口 |--⑥-|
80
③口口② |----|
④③③④ |①-②-|
口②②口 |--③-|
①④④① |--④-|
81
口③口口 |----|
口口②口 |----|
口①口口 |--①-|
口口口口 |②-③-|
82
④④①① |----|
口口口口 |①---|
口口③口 |②-③-|
②②④④ |--④-|
83
⑥⑥④④ |--①-|
①②口③ |②-③-|
①②⑤③ |--④-|
口口口口 |⑤-⑥-|
84
口⑤⑤⑤ |①---|
口②②口 |②---|
③口口④ |③-④-|
口①①口 |--⑤-|
85
②口口口 |--①-|
②口⑤③ |--②-|
②④口③ |--③-|
①①①③ |④-⑤-|
86
口①②口 |①---|
口口口② |----|
口③②口 |②---|
口口口口 |③---|
87
③③口口 |①---|
口①②口 |②---|
①口口口 |③---|
口①④④ |④---|
88
口口①② |①---|
口口②① |----|
②①口口 |②---|
①②口口 |----|
89
口口②口 |①-②-|
⑦①④口 |--③-|
口⑤①⑥ |④-⑤-|
③口口口 |⑥-⑦-|
90
口口⑤⑤ |①---|
口口③口 |②---|
①③口口 |③---|
④①②② |④-⑤-|
91
③①⑥口 |--①-|
①③口⑥ |②-③-|
⑤⑦④② |④-⑤-|
⑦⑤②④ |⑥-⑦-|
92
⑤⑤口① |①---|
②②①口 |②---|
口口③口 |③---|
口③口④ |④-⑤-|
93
⑥口③① |--①-|
口⑥①③ |②-③-|
④②⑤⑦ |④-⑤-|
②④⑦⑤ |⑥-⑦-|
94
口①②口 |①---|
①口口② |②---|
口口口口
口口口口

⑤⑤口口
口口③口
口③口口 |③---|
口口口④ |④-⑤-|
95
口⑥①③ |--①-|
⑥口③① |②-③-|
②④⑦⑤ |④-⑤-|
④②⑤⑦ |⑥-⑦-|
96
①口①⑤ |--①-|
口②口② |②-③-|
③④口⑤ |④-⑤-|
④③⑥⑥ |--⑥-|
97
②①④④ |--①-|
①②⑤⑤ |②-③-|
⑤⑤③口 |④---|
④④口口 |⑤---|

accuracy: 99.5%
最終更新:2024年09月08日 16:13