アットウィキロゴ
封隠文様
駄々子

EXTREME

Level: 9.3
BPM: 175
Notes(hold): 685(66)

1
口口口口 |----|
口口口口 |----|
口口口口 |----|
口口口口 |----|
2
①④② |①-②-|
口口③口 |③-④-|
口口口口 |----|
口口口口 |----|
3
口口口口 |----|
口口口口 |----|
口口口口 |----|
口口口口 |----|
4
口①口口 |①-②-|
②④①< |③-④-|
口③口口 |----|
口口口口 |----|
5
口口口口 |----|
口口口口 |----|
口口口口 |----|
口口口口 |----|
6
口口口口 |①-②-|
口口①口 |③-④-|
口①④② |----|
口∧③口 |----|
7
口口①口 |①---|
口②口① |----|
②①口口 |②---|
口口口口 |----|
8
口口口口 |①---|
口口口口 |----|
口口①< |----|
①口口 |----|
9
口口口② |①---|
口口口口 |②---|
口①①口 |③---|
③①①④ |④---|
10
①③①③ |①---|
①口口③ |②---|
口⑤口口 |③---|
⑤②④口 |④-⑤-|
11
②口口口 |①-②-|
口②⑧口 |③-④-|
口⑦⑤③ |⑤-⑥-|
口④⑥① |⑦-⑧-|
12
③③口③ |①---|
①①口① |②---|
口口口口 |③---|
②②口② |④-⑤-|

口口口口
口⑤口口
④④口④
口口⑤口
13
③口口④ |--①-|
②口①② |--②-|
口⑤口口 |--③-|
④①口③ |④-⑤-|
14
口口①口 |①---|
②口①口 |②-③-|
口⑥③口 |--④-|
口④③⑤ |⑤-⑥-|
15
口⑥①口 |①---|
②④①⑤ |②-③-|
口口③口 |--④-|
口口③口 |⑤-⑥-|
16
口口>① |①---|
口口口口 |--②-|
口②口口 |③---|
口>③口 |--④-|

口口口②
口口口口
口口口口
口口④口
17
④口①口 |①---|
口口口① |②---|
①口口口 |③---|
③①口② |④---|
18
口口口① |①---|
口口口∧ |--②-|
口口口口 |③---|
口口口口 |----|

口口口②
口口口口
口∨口口
②③口口
19
口⑧口⑦ |①-②③|
⑥①①③ |-④⑤-|
②口口⑤ |⑥⑦--|
④①⑨口 |⑧-⑨-|
20
口口口⑦ |①-②③|
⑥①①③ |-④⑤-|
②口口⑤ |⑥⑦-⑧|
④口口口 |⑨-⑩⑪|

口口⑪口
口⑩口口
口口⑨口
口⑧口口
21
③口⑦⑥ |--①-|
③口②② |②-③-|
①①口④ |④-⑤-|
⑤⑤口④ |⑥-⑦-|
22
口①口口 |①---|
口∧口口 |----|
口口口③ |----|
口口口② |②-③-|

口③口口
口口口口
口口口口
口口口口
23
口口口口 |①---|
口①口口 |②-③-|
口∧③口 |----|
口口②口 |④-⑤-|

口口⑤④
口⑤|口
口口∧口
口口口口
24
口∨口口 |①---|
口|口口 |----|
口①口口 |----|
口口口口 |----|
25
②口①口 |①---|
口口口口 |----|
口②口口 |②---|
口口③口 |--③-|
26
口①③② |①---|
口∧口口 |②-③-|
口口①口 |----|
口口口④ |--④-|

口④口口
口口口口
口口口口
口口口口
27
口口②③ |①---|
口①口口 |②-③-|
口∧④① |--④-|
口口口⑤ |--⑤-|

口口口口
口⑤口口
口口口口
口口口口
28
口口口口 |①---|
口口口口 |②---|
口①口① |③---|
口∧口口 |④-⑤-|

口口口②
∨口口口
③②口口
口口③口

口口④口
口口⑤口
④口口口
口口口口
29
⑤口⑦⑥ |①---|
口④口口 |②-③④|
口口③口 |⑤---|
①<口口 |⑥-⑦-|

口口口口
口口口口
口口口口
②口口口
30
口③口口 |①-②-|
⑤口⑥② |③-④-|
口①④口 |⑤-⑥-|
⑦⑦⑧⑧ |⑦-⑧-|
31
④③③⑦ |①-②-|
口⑥⑤② |③-④-|
④①口⑦ |⑤-⑥-|
⑧口口⑧ |⑦-⑧-|
32
口③口口 |①-②-|
⑤口⑥② |③-④-|
口①④口 |⑤-⑥-|
⑦口⑧口 |⑦-⑧-|
33
口③口⑦ |①-②-|
⑤口⑥② |③-④-|
口①④口 |⑤-⑥-|
口⑦口口 |⑦---|
34
①口口口 |①-②-|
⑤口口④ |③-④-|
③口⑥② |⑤-⑥-|
⑤口①④ |⑦-⑧-|

口口口口
口口口口
口⑦口口
口口⑧口
35
口④①口 |①---|
③④口② |②---|
②口④③ |③---|
口①④口 |④---|
36
②⑥①① |①-②-|
口口口③ |③-④-|
④口口口 |⑤-⑥-|
①①⑥⑤ |⑦-⑧-|

口口∨口
⑦⑧⑧口
口⑧⑧⑦
口∧口口
37
②口口③ |----|
④口①⑤ |①---|
⑥①口口 |②③④⑤|
口口口⑦ |⑥-⑦-|
38
口口③④ |①-②-|
口②⑦⑤ |③-④-|
口⑥①⑤ |⑤---|
口口口口 |⑥-⑦-|
39
②①口口 |①-②-|
③口口口 |③---|
③口口口 |④-⑤-|
口口口口 |⑥-⑦-|

口⑦口口
口口⑥口
口⑤口口
口口④口
40
③⑤①⑤ |①---|
口③口① |②-③-|
口口口口 |--④-|
④②④② |--⑤-|
41
口口口口 |①---|
③口口③ |②---|
②①①② |③---|
口④④口 |④---|
42
①口口⑤ |①-②-|
⑥①⑤口 |③-④-|
③⑤①② |⑤-⑥-|
口口口④ |⑦-⑧-|

⑧口口口
口口口⑦
口口口口
口口口口
43
口④①口 |①---|
口①口④ |②---|
②口①③ |③---|
口③②口 |④---|
44
⑤口①④ |①-②-|
①③②口 |③-④-|
口⑤④口 |⑤-⑥-|
口口⑥口 |⑦-⑧-|

口口⑧口
口口口口
口口口⑧
口⑦口口
45
口①口口 |①-②-|
口∧⑤④ |③-④-|
①口③口 |⑤---|
∧口口② |⑥---|

口⑤口⑥
口口口口
⑤⑥口口
口口⑥口
46
∨口①口 |①---|
①∨|口 |----|
口|∧① |----|
口①口∧ |--②-|

口口②口
②口口口
口口口②
口②口口
47
②口口口 |①---|
口①①口 |②---|
口①①口 |③---|
④口口③ |④---|
48
③①③① |①---|
③口口① |②---|
口口⑤口 |③---|
口④②⑤ |④-⑤-|
49
口口口② |①-②-|
口⑧②口 |③-④-|
③⑤⑦口 |⑤-⑥-|
①⑥④口 |⑦-⑧-|
50
③口③③ |①---|
①口①① |②---|
口口口口 |③---|
②口②② |④-⑤-|

口口口口
口口⑤口
④口④④
口⑤口口
51
④口口③ |--①-|
②①口② |--②-|
口口⑤口 |--③-|
③口①④ |④-⑤-|
52
口①口口 |①---|
口①口② |②-③-|
口③⑥口 |--④-|
⑤③④口 |⑤-⑥-|
53
口①⑥口 |①---|
⑤①④② |②-③-|
口③口口 |--④-|
口③口口 |⑤-⑥-|
54
①<口口 |①---|
口口口口 |--②-|
口口②口 |③---|
口③<口 |--④-|

②口口口
口口口口
口口口口
口④口口
55
口①口④ |①---|
①口口口 |②---|
口口口① |③---|
②口①③ |④---|
56
①口口口 |①-②-|
∧口口口 |③-④-|
口④②口 |⑤-⑥-|
口③①口 |⑦-⑧-|

④⑧⑥口
口⑦⑤口
⑤口口口
∧口口口
57
口⑦⑧口 |①-②-|
口⑥⑤口 |③-④-|
③③④口 |⑤-⑥-|
口②①口 |⑦-⑧-|
58
②口口① |①-②-|
④口口③ |③-④-|
⑥口口⑤ |⑤-⑥-|
⑧口口⑦ |⑦-⑧-|
59
④⑧⑤① |①②③④|
口②⑪⑦ |⑤⑥⑦⑧|
⑩⑥⑨口 |⑨⑩⑪⑫|
口⑫③口 |⑬⑭⑮⑯|

口口口⑮
⑭⑯口口
口口口口
口口口⑬
60
①<②④ |①---|
∨口④② |②---|
③口口口 |③---|
口口口口 |④---|

②口口口
口口口口
④口口口
口口口口
61
①口口 |①-②-|
③口口 |③-④-|
⑤③⑦ |⑤-⑥-|
⑦⑦③ |⑦-⑧-|

口②口口
口④口口
口⑥口口
口⑧口口
62
①<③⑦ |①-②-|
③<⑦③ |③-④-|
⑤<口口 |⑤-⑥-|
⑦<口口 |⑦-⑧-|

②口口口
④口口口
⑥口口口
⑧口口口
63
①③<口 |①---|
③口口口 |②---|
口口②④ |③---|
口⑤④② |④-⑤-|

口④口口
口口口口
口口口口
口口口口
64
③∨②④ |①---|
口③④② |②---|
①①口口 |③---|
口⑤口口 |④-⑤-|

口口口口
口④口口
口口口口
口口口口
65
口口口口 |①---|
③口口④ |②---|
①①②口 |③---|
口④③② |④---|
66
①①<口 |①---|
口口口口 |②-③-|
①口口口 |④---|
口口口口 |⑤-⑥-|

口②口③
④④口口
口|口口
④∧口口

⑥口口口
口⑤口口
口口口口
口口口口
67
口∨②⑧ |①-②-|
口|⑥④ |③-④-|
①①①⑦ |⑤-⑥-|
口口⑤③ |⑦-⑧-|

口口口口
口口口口
口⑦口口
口口口口
68
①<②④ |①---|
∨口④② |②---|
③口口口 |③---|
口口口口 |④---|

②口口口
口口口口
④口口口
口口口口
69
①口口 |①-②-|
③<口口 |③-④-|
⑤③口 |⑤-⑥-|
⑦<⑦③ |⑦-⑧-|

口②口口
④口口口
口⑥口口
⑧口口口
70
①③⑦ |①-②-|
③<⑦③ |③-④-|
⑤口口 |⑤-⑥-|
⑦<口口 |⑦-⑧-|

口②口口
④口口口
口⑥口口
⑧口口口
71
①③<口 |①---|
③口口口 |②---|
口⑤②④ |③---|
口口④② |④-⑤-|

口④口口
口口口口
口口口口
口口口口
72
③∨②口 |①---|
口③口② |②---|
①口口口 |③---|
口①口口 |④-⑤-|

口口口④
口④④口
口口口口
口⑤口口
73
口口口口 |①---|
③口口④ |②---|
口①②口 |③---|
①④③② |④---|
74
①①<口 |①---|
口口口口 |②-③-|
口口口口 |④---|
口口口口 |⑤-⑥-|

口②口③
④④口口
口|口口
④∧口口

⑥口口口
口⑤口口
口口口口
口口口口
75
口口⑤口 |①-②-|
口口口⑤ |③-④-|
②①①口 |⑤---|
④口口③ |⑥⑦⑧⑨|

口口口口
口⑥⑦口
口⑧⑨口
口口口口
76
口口⑤① |①--②|
∨口口③ |--③-|
①口⑥② |-④--|
口①<④ |⑤--⑥|
77
⑤②口③ |--①-|
口⑥④口 |-②--|
③①口口 |③-④-|
口③口口 |⑤-⑥-|
78
口>①口 |①---|
④④口口 |--②-|
②②口口 |③---|
③③口口 |--④-|

口口④口
口口口口
口口口口
口口口口
79
②①⑤④ |①--②|
口⑤②③ |--③-|
③④①② |-④--|
④③①⑤ |⑤-⑥⑦|

口口口口
口口口口
口口⑦口
口口⑥口
80
∨口口口 |①---|
①口①< |----|
口口口口 |----|
口口口口 |②---|

口口口口
②口②口
口口口口
口口口口
81
②④①< |①-②-|
口③口口 |③-④-|
口口口口 |----|
口口口口 |----|
82
∨口①口 |----|
|口②口 |----|
|②口② |①---|
①口②口 |②---|

口口口口
口口口口
口口口口
②口口口
最終更新:2022年04月07日 14:01