アットウィキロゴ
Toy Robot Factory
MARON (IOSYS)

BASIC

Level: 4
BPM: 184
Notes: 303

1
口口口口 |----|
口口口口 |----|
口口口口 |----|
口口口口 |----|
2
口口口口 |①---|
①口②口 |--②-|
口③口口 |----|
口口口口 |③---|
3
口口口口 |--①-|
口③②口 |----|
口口口① |②---|
口口口口 |③---|
4
口口口口 |①---|
①口②口 |--②-|
口③口口 |----|
口口口口 |③---|
5
口口口口 |--①-|
口③②口 |----|
口口口① |②---|
口口口口 |③---|
6
口口口口 |①---|
①口②口 |--②-|
口③口口 |----|
口口口口 |③---|
7
口口口口 |--①-|
口③②口 |----|
口口口① |②---|
口口口口 |③---|
8
①口口① |①---|
口口口口 |----|
口口口口 |----|
口口口口 |----|
9
口口口口 |①---|
口口口口 |----|
①②①② |②---|
口口口口 |----|
10
口①口口 |①---|
口口口② |②---|
口③③口 |③---|
口口口口 |----|
11
口口①口 |①---|
②口口口 |②---|
口③③口 |③---|
口口口口 |----|
12
口口口口 |①---|
口口③② |②---|
口口④① |③---|
口口口口 |④---|
13
口口口口 |①---|
③②口口 |②---|
④①口口 |③---|
口口口口 |④---|
14
口①口口 |①---|
口口口② |②---|
口③③口 |③---|
口口口口 |----|
15
口口①口 |①---|
②口口口 |②---|
口③③口 |③---|
口口口口 |----|
16
①口口③ |①---|
②口口④ |②---|
口口口口 |③---|
口口口口 |④---|
17
口口口口 |①---|
口口口口 |----|
口①①口 |----|
口口口口 |----|
18
口①口口 |①---|
口①口口 |----|
口口②口 |②---|
口口②口 |----|
19
口口口口 |①---|
口口①① |----|
②②口口 |②---|
口口口口 |----|
20
口口口口 |①---|
口①④口 |②---|
口③②口 |③---|
口口口口 |④---|
21
口口口口 |①---|
口①口口 |②---|
口口②口 |③---|
口③③口 |----|
22
口口④② |①---|
口口口口 |②---|
口口③① |③---|
口口口口 |④---|
23
④②口口 |①---|
口口口口 |②---|
③①口口 |③---|
口口口口 |④---|
24
口口口① |①---|
口口②口 |②---|
口③口口 |③---|
④口口口 |④---|
25
口口口口 |①---|
③口口③ |②---|
口口口口 |③---|
口①②口 |----|
26
口口口口 |①---|
口②②口 |----|
口①①口 |②---|
口口口口 |----|
27
口口口① |①---|
口口口② |②---|
口口口③ |③---|
口口口口 |----|
28
口口口口 |①---|
口②②口 |----|
口①①口 |②---|
口口口口 |----|
29
①口口口 |①---|
②口口口 |②---|
③口口口 |③---|
口口口口 |----|
30
口口口口 |①---|
口口口口 |----|
口口②口 |②---|
口口①口 |----|
31
口口口口 |①---|
口口口口 |----|
口①口口 |②---|
口②口口 |----|
32
口口口口 |①---|
口口口口 |----|
口口②② |②---|
口口①① |----|
33
口口口口 |①---|
口口口口 |----|
①①口口 |②---|
②②口口 |----|
34
口口口口 |①---|
口②①口 |----|
口②①口 |②---|
口口口口 |----|
35
①②③口 |①---|
口口口口 |②---|
口口口口 |③---|
口口口口 |----|
36
口口口口 |①---|
口①②口 |----|
口①②口 |②---|
口口口口 |----|
37
口③②① |①---|
口口口口 |②---|
口口口口 |③---|
口口口口 |----|
38
口口口口 |①---|
④③②① |②---|
口口口口 |③---|
口口口口 |④---|
39
①②③④ |①---|
口口口口 |②---|
口口口口 |③---|
口口口口 |④---|
40
口口口口 |①---|
④③②① |②---|
口口口口 |③---|
口口口口 |④---|
41
口口口口 |①---|
口口口口 |②---|
①口口④ |③---|
口②③口 |④---|
42
口口口口 |①---|
口①①口 |----|
口口口口 |----|
口口口口 |----|
43
口口口口 |①---|
口口口口 |----|
口口口口 |----|
口①①口 |----|
44
口口口口 |①---|
①口口① |----|
口口口口 |----|
口口口口 |----|
45
口口口口 |①---|
口口口口 |----|
口口口口 |----|
①口口① |----|
46
口口口口 |①---|
口①口口 |----|
口口口口 |②---|
口口②口 |----|
47
口口口口 |①---|
口口②口 |----|
口口口口 |②---|
口①口口 |----|
48
①①①① |①---|
口口口口 |----|
口口口口 |----|
口口口口 |----|
49
口口口口 |①---|
①①①① |----|
口口口口 |----|
口口口口 |----|
50
口口口口 |①---|
口口口口 |----|
①口口口 |----|
口口口口 |----|
51
口口口口 |①---|
口口口口 |----|
口口口① |----|
口口口口 |----|
52
口口口口 |①---|
口①口口 |----|
口口①口 |----|
口口口口 |----|
53
口口口口 |①---|
口口①口 |----|
口①口口 |----|
口口口口 |----|
54
口口口口 |①---|
口①口口 |----|
口口①口 |----|
口口口口 |----|
55
口口口口 |①---|
口口①口 |----|
口①口口 |----|
口口口口 |----|
56
口口口口 |①---|
①口口口 |----|
口口口① |----|
口口口口 |----|
57
口口口口 |①---|
口口口① |----|
①口口口 |----|
口口口口 |----|
58
口口口口 |①---|
①口口口 |----|
口口口① |----|
口口口口 |----|
59
口口口口 |①---|
口口口① |----|
①口口口 |②---|
②②②② |----|
60
口口口① |①---|
口口②口 |②---|
口口口③ |③---|
口口④口 |④---|
61
①口口口 |①---|
口②口口 |②---|
③口口口 |③---|
口④口口 |④---|
62
口口口口 |①---|
③口口② |----|
口①①口 |②---|
口口口口 |③---|
63
口①①口 |①---|
口口口口 |----|
口②②口 |②---|
口口口口 |----|
64
①口口口 |①---|
口②口口 |②---|
口口③口 |③---|
口口口④ |④---|
65
口口口① |①---|
口口②口 |②---|
口③口口 |③---|
④口口口 |④---|
66
口③④口 |①---|
②口口口 |②---|
①口口口 |③---|
口口口口 |④---|
67
口口口口 |①---|
口④口① |②---|
口口④② |③---|
口口③口 |④---|
68
口口口口 |①---|
口口①口 |----|
口①口口 |----|
口口口口 |----|
69
口口口口 |①---|
①口口口 |----|
口②②口 |②---|
口口口口 |----|
70
口口口口 |①---|
口口口① |----|
口②②口 |②---|
口口口口 |----|
71
口口口口 |①---|
①口口① |----|
口口口口 |----|
口口口口 |----|
72
口①①口 |①---|
口口口口 |----|
口②②口 |②---|
口口口口 |----|
73
①口口② |①---|
①口口② |----|
口口口口 |②---|
口口口口 |----|
74
口①口口 |①---|
口②口口 |②---|
口③口口 |③---|
口口口口 |----|
75
口口口口 |①---|
口口口口 |----|
②口口① |②---|
②口口① |----|
76
口口③口 |①---|
口口②口 |②---|
口口①口 |③---|
口口口口 |----|
77
①①口口 |①---|
口口口口 |----|
②②口口 |②---|
口口口口 |----|
78
口口①① |①---|
口口口口 |----|
口口②② |②---|
口口口口 |----|
79
口口口口 |①---|
①口口② |----|
①口口② |②---|
口口口口 |----|
80
②②②② |①---|
口口口口 |----|
口口口口 |②---|
口①①口 |----|
81
口口口口 |①---|
口口口口 |②---|
口④③口 |③---|
口①②口 |④---|
82
口口口口 |①---|
口①②③ |②---|
口口口口 |③---|
口口口口 |----|
83
口口口口 |①---|
口口口口 |②---|
口③④口 |③---|
口②①口 |④---|
84
口口口口 |①---|
③②①口 |②---|
口口口口 |③---|
口口口口 |----|
85
口口①① |①---|
口口口口 |----|
口口②② |②---|
口口口口 |----|
86
①①口口 |①---|
口口口口 |----|
②②口口 |②---|
口口口口 |----|
87
口口口口 |①---|
②口口① |----|
②口口① |②---|
口口口口 |----|
88
口口口口 |①---|
口口口口 |----|
口口口口 |----|
口①①口 |----|
89
口口口口 |①---|
口口口口 |----|
口口口口 |②---|
①②②① |----|
90
③③③③ |①---|
①口口① |②---|
口②②口 |③---|
口口口口 |----|

accuracy: 100%
最終更新:2022年05月05日 04:20