アットウィキロゴ
Toy Robot Factory
MARON (IOSYS)

ADVANCED

Level: 7
BPM: 184
Notes: 526

1
口口口口 |----|
口口口口 |----|
口口口口 |----|
口口口口 |----|
2
①②口口 |①-②-|
口口④③ |--③-|
⑤⑥口口 |④---|
口口口口 |⑤-⑥-|
3
口口口口 |--①-|
口③④口 |②---|
口④③口 |③---|
口口②① |④---|
4
口口②① |①-②-|
③④口口 |--③-|
口口⑥⑤ |④---|
口口口口 |⑤-⑥-|
5
口口口口 |--①-|
③口口④ |②---|
③口口④ |③---|
①②口口 |④---|
6
①口口③ |①-②-|
口②④口 |--③-|
⑤口口口 |④---|
口⑥口口 |⑤-⑥-|
7
口口口口 |--①-|
口③④口 |②---|
口④③① |③---|
口口②口 |④---|
8
①口口① |①---|
口口口口 |----|
口口口口 |----|
口口口口 |----|
9
口口口口 |①---|
②④②④ |②---|
口口口口 |③---|
③①③① |④---|
10
①口②口 |①-②-|
口口口口 |③-④-|
③口④口 |⑤---|
口⑤口口 |----|
11
口②口① |①-②-|
口口口口 |③-④-|
口④口③ |⑤---|
口口⑤口 |----|
12
③口口② |①---|
③口口② |②---|
①口口④ |③---|
①口口④ |④---|
13
口⑤口口 |①-②-|
口③④口 |③-④-|
口①②口 |⑤---|
口口口口 |----|
14
①口②口 |①-②-|
口口口口 |③-④-|
③口④口 |⑤---|
口⑤口口 |----|
15
口②口① |①-②-|
口口口口 |③-④-|
口④口③ |⑤---|
口口⑤口 |----|
16
口③②口 |①---|
③口口② |②---|
①口口④ |③---|
口①④口 |④---|
17
口口口口 |①---|
口①口口 |----|
口口①口 |----|
口口口口 |----|
18
①口口口 |①-②-|
②口口口 |③-④-|
③口口口 |⑤---|
④⑤口口 |----|
19
口口口① |①-②-|
口口口② |③-④-|
口口口③ |⑤---|
口口⑤④ |----|
20
口口口口 |①---|
口①②口 |----|
口②①口 |②---|
口口口口 |----|
21
④口口④ |①---|
口③③口 |②---|
①口口② |③---|
口口口口 |④---|
22
口①①口 |①---|
③口口③ |②---|
口②②口 |③---|
④口口④ |④---|
23
①③③① |①---|
口口口口 |②---|
②④④② |③---|
口口口口 |④---|
24
①口口② |①-②-|
③口口④ |③-④-|
⑤口口⑥ |⑤-⑥-|
⑦口口⑧ |⑦-⑧-|
25
④③口④ |①---|
口③②口 |②---|
口①②口 |③---|
口①口口 |④---|
26
口③③口 |①---|
口口口② |②---|
口①口口 |③---|
口④④口 |④---|
27
①口口② |①---|
①口口② |②---|
口口口口 |③---|
③口口③ |----|
28
口③③口 |①---|
②口口口 |②---|
口口①口 |③---|
口④④口 |④---|
29
②口口① |①---|
②④④① |②---|
口③③口 |③---|
口口口口 |④---|
30
口①①② |①---|
口口②口 |----|
口口口口 |----|
口口口口 |②---|
31
口口口口 |①---|
①②口口 |----|
②①口口 |----|
口口口口 |②---|
32
口口口口 |①---|
③口口口 |②---|
口口④① |③---|
口②①口 |④---|
33
②③③① |①---|
口口口口 |②---|
口口口口 |③---|
口④④口 |④---|
34
口③③口 |①---|
口口②② |②---|
①①口口 |③---|
口④④口 |④---|
35
①口口② |①---|
①口口② |②---|
口口口口 |③---|
③口口③ |----|
36
口③③口 |①---|
②②口口 |②---|
口口①① |③---|
口④④口 |④---|
37
②口口① |①---|
②④④① |②---|
口③③口 |③---|
口口口口 |④---|
38
口①①② |①---|
口口②口 |----|
口口口口 |----|
口口口口 |②---|
39
①口口口 |①---|
③①口② |②---|
口③②④ |③---|
口口④口 |④---|
40
口口口口 |①---|
口口口口 |----|
①口口口 |----|
口①口口 |----|
41
③口口③ |①---|
口口口口 |②---|
口口口口 |③---|
①②②① |----|
42
口②口③ |①---|
②口③口 |--②-|
口口①① |----|
口口口口 |③---|
43
③口②口 |①---|
口③口② |--②-|
①①口口 |----|
口口口口 |③---|
44
口②③口 |①---|
口③②口 |--②-|
口①①口 |----|
口口口口 |③---|
45
④口口口 |①---|
口口口③ |②---|
②口口口 |③---|
口口口① |④---|
46
口④口口 |①---|
④口③口 |②---|
口②口口 |③---|
口口①口 |④---|
47
口口④口 |①---|
口③口④ |②---|
口口②口 |③---|
口①口口 |④---|
48
口①口① |①---|
口口口口 |----|
口②②② |----|
口口口口 |②---|
49
口口口口 |①---|
①口①口 |----|
口口口口 |----|
②②②口 |②---|
50
口口口口 |①---|
①口口口 |----|
①口口口 |----|
口口口口 |----|
51
②口口② |①---|
②口口② |----|
口口口口 |②---|
口①①口 |----|
52
口口口口 |①---|
口口①口 |----|
口①口口 |----|
口口口口 |----|
53
口口口口 |①---|
口①口口 |----|
口口①口 |----|
口口口口 |----|
54
口口口口 |①---|
口口①口 |----|
口①口口 |----|
口口口口 |----|
55
口口口口 |①---|
口①口口 |----|
口口①口 |----|
口口口口 |----|
56
①口口口 |①---|
②口口口 |②---|
③口口口 |③---|
④口口口 |④---|
57
口口口① |①---|
口口口② |②---|
口口口③ |③---|
口⑤口④ |④-⑤-|
58
口口①口 |①---|
口口②口 |②---|
口口③口 |③---|
口口④口 |④---|
59
口①口口 |①---|
口②口口 |②---|
口③口口 |③---|
口④口口 |④---|
60
①口口① |①---|
②口口② |②---|
③口口③ |③---|
④口口④ |④---|
61
①口①口 |①---|
口②口② |②---|
③口③口 |③---|
口④口④ |④---|
62
口①口口 |①---|
①②口② |②---|
③口③口 |③---|
口④口④ |④---|
63
①口口① |①---|
口②②口 |②---|
口③③口 |③---|
④口口④ |④---|
64
①口口① |①---|
②口口② |②---|
③口口③ |③---|
④口口④ |④---|
65
口①口① |①---|
②口②口 |②---|
口③口③ |③---|
④口④口 |④---|
66
①口①口 |①---|
口②口② |②---|
③口③口 |③---|
口④口④ |④---|
67
①①①① |①---|
②②②② |②---|
③③③③ |③---|
④④④④ |④---|
68
①①①① |①---|
口口口口 |----|
口口口口 |----|
口口口口 |----|
69
①口口口 |①---|
口口口口 |----|
口口口口 |②---|
口②②口 |----|
70
口口口① |①---|
口口口口 |----|
口口口口 |②---|
口②②口 |----|
71
口口口口 |①---|
①口口① |----|
①口口① |----|
口口口口 |----|
72
③口口③ |①---|
口②①口 |----|
口①②口 |②---|
口口口口 |③---|
73
口①口口 |①---|
①口②口 |②---|
口②口③ |③---|
口口③口 |----|
74
口口①口 |①---|
口②口① |②---|
③口②口 |③---|
口③口口 |----|
75
③①③① |①---|
口口口口 |②---|
口口口口 |③---|
②④②④ |④---|
76
③口③口 |①---|
口②口② |②---|
①口①口 |③---|
口口口口 |----|
77
口②口① |①-②-|
口口口口 |③-④-|
口④口③ |⑤---|
口口⑤口 |----|
78
①口②口 |①-②-|
口口口口 |③-④-|
③口④口 |⑤---|
口⑤口口 |----|
79
②口口③ |①---|
②口口③ |②---|
④口口① |③---|
④口口① |④---|
80
口口⑤口 |①-②-|
口④③口 |③-④-|
口②①口 |⑤---|
口口口口 |----|
81
口②口① |①-②-|
口④口③ |③-④-|
口⑥口⑤ |⑤-⑥-|
口⑧口⑦ |⑦-⑧-|
82
口口⑤口 |①-②-|
④口③口 |③-④-|
②口①口 |⑤---|
口口口口 |----|
83
口②③口 |①---|
②口口③ |②---|
④口口① |③---|
口④①口 |④---|
84
口③口③ |①---|
口②①口 |②---|
口①②口 |③---|
④口④口 |④---|
85
①口②口 |①-②-|
口口口口 |③-④-|
③口④口 |⑤---|
口⑤口口 |----|
86
口②口① |①-②-|
口口口口 |③-④-|
口④口③ |⑤---|
口口⑤口 |----|
87
③口口② |①---|
③口口② |②---|
①口口④ |③---|
①口口④ |④---|
88
口①②口 |①-②-|
口③④口 |③-④-|
口⑤⑥口 |⑤-⑥-|
口⑦⑧口 |⑦-⑧-|
89
③口口④ |①---|
①口口② |②---|
①口口② |③---|
④口口③ |④---|
90
口①②④ |①---|
③口④③ |②---|
③④口③ |③---|
口②①口 |④---|

accuracy: 100%
最終更新:2022年05月05日 04:47