アットウィキロゴ
Toy Robot Factory
MARON (IOSYS)

EXTREME

Level: 9.8
BPM: 184
Notes: 854

1
口口口口 |----|
口口口口 |----|
口口口口 |----|
口口口口 |----|
2
口口③① |①-②-|
口口③① |--③-|
口②口口
口②口①

⑤⑤口口
口口口口
④口口口 |④---|
④口⑥⑥ |⑤-⑥-|
3
口口④④ |--①-|
①①④④ |②---|
③③②② |③---|
③③口口 |④---|
4
①③⑤⑤ |①-②-|
①③口口 |--③-|
口口②④ |④---|
⑥⑥②④ |⑤-⑥-|
5
③④口口 |--①-|
④口①① |②---|
②②口④ |③---|
口口④③ |④---|
6
⑤⑤③① |①-②-|
口口③① |--③-|
④②口口 |④---|
④②⑥⑥ |⑤-⑥-|
7
口口④④ |--①-|
①①④④ |②---|
③③②② |③---|
③③口口 |④---|
8
①口口口 |①---|
口②口口 |②---|
口口③口 |③---|
口口口④ |④---|
9
口③①口 |①---|
②④口④ |②---|
口②④口 |③---|
口①③④ |④---|
10
⑤口口① |①-②-|
口⑥②口 |③-④-|
口③口口 |⑤---|
④⑦⑤口 |--⑥⑦|
11
⑤口④口 |①-②-|
⑦口⑥③ |③-④-|
口口②口 |⑤---|
口口⑤① |--⑥⑦|
12
口口口口 |①-②-|
口口口口 |③-④⑤|
③⑤口④
①口口②

口口口⑥
⑧口⑪口
口口口口 |⑥-⑦-|
⑩⑦⑨口 |⑧⑨⑩⑪|
13
①③⑤⑤ |①-②-|
口口口口 |③-④-|
②④②④ |⑤---|
⑥口口口 |⑥---|
14
①口口⑤ |①-②-|
口②⑥口 |③-④-|
口口③口 |⑤---|
口⑤⑦④ |--⑥⑦|
15
口④口⑤ |①-②-|
③⑥口⑦ |③-④-|
口②口口 |⑤---|
①⑤口口 |--⑥⑦|
16
⑨口④⑦ |①-②③|
口口口口 |④-⑤-|
②口③口 |⑥-⑦-|
⑤⑧⑥① |⑧-⑨-|
17
口口口口 |①---|
口③④口 |②---|
口④③① |③---|
②口口① |④---|
18
①⑪口① |①-②-|
②⑨⑩② |③-④-|
③⑦⑧③ |⑤⑥⑦⑧|
④⑤⑥④ |⑨⑩⑪-|
19
①口⑪① |①-②-|
④⑩⑨④ |③-④-|
②⑧⑦② |⑤⑥⑦⑧|
③⑥⑤③ |⑨⑩⑪-|
20
①⑤⑧② |①-②-|
口口⑧口 |③-④-|
③⑦口④ |⑤-⑥-|
③⑦⑥④ |⑦-⑧-|
21
①⑦⑦② |①-②-|
①⑤口② |③-④⑤|
③口⑥④ |⑥---|
③⑦⑦④ |⑦---|
22
⑤口口① |①-②-|
⑦口⑨③ |③-④-|
④口口⑧ |⑤-⑥-|
②口口⑥ |⑦-⑧⑨|
23
⑦⑧口口 |①②③-|
⑪⑥口④ |④-⑤⑥|
⑤②①⑫ |⑦⑧⑨⑩|
③口⑩⑨ |⑪-⑫-|
24
⑦⑤③① |①-②-|
口口⑥⑧ |③-④-|
⑤⑦口口 |⑤-⑥-|
④②⑧⑥ |⑦-⑧-|
25
口⑤②③ |①-②-|
①④⑤口 |③-④-|
⑤口④① |⑤---|
③②口口 |----|
26
口口口口 |①-②-|
①口口③ |③-④-|
口口口口
③④②①

口口口⑤
⑧口口口
⑤⑥⑦口 |⑤-⑥-|
口口口口 |⑦-⑧-|
27
④口①口 |①-②-|
口⑥⑤口 |③-④-|
⑦口口口 |⑤⑥⑦-|
②口③口 |----|
28
口口口口 |①-②-|
③口口① |③-④-|
口口口口
①②④③

⑤口口口
口口口⑧
口⑦⑥⑤ |⑤-⑥-|
口口口口 |⑦-⑧-|
29
⑤①口④ |①-②-|
口口口口 |③-④-|
口口口口 |⑤---|
⑥③⑦② |⑥-⑦-|
30
⑤⑤⑥⑥ |①-②-|
口①口④ |--③-|
③口①② |--④-|
口口口口 |⑤-⑥-|
31
口口口口 |①-②-|
口口口④ |--③-|
③⑤⑤② |--④-|
口口①① |⑤---|
32
②③口④ |①-②③|
⑤⑥口口 |④-⑤⑥|
口口口口
口①①口

口口口口
口口口⑦
⑧⑨口⑩ |⑦-⑧⑨|
⑪⑫口口 |⑩-⑪⑫|
33
②③⑦④ |①-②③|
口⑤⑥口 |④-⑤⑥|
口⑨⑧⑩ |⑦-⑧-|
口口口① |⑨-⑩-|
34
口①口口 |①-②-|
①口口③ |③-④-|
口口口口
③④②①

口口口⑤
⑧口口口
⑤⑥⑦口 |⑤-⑥-|
口口口口 |⑦-⑧-|
35
④⑧①⑤ |①-②-|
口⑥⑤口 |③-④-|
⑦口口口 |⑤⑥⑦-|
②口③口 |⑧---|
36
口口口口 |①-②-|
③口口① |③-④-|
口口口口
①②④③

⑤口口口
口口口⑧
口⑦⑥⑤ |⑤-⑥-|
口口口口 |⑦-⑧-|
37
⑤①口④ |①-②-|
口口口口 |③-④-|
口口口口 |⑤---|
⑥③⑦② |⑥-⑦-|
38
⑤⑤口口 |①-②-|
⑥①口④ |--③-|
③口①② |--④-|
口口口口 |⑤-⑥-|
39
口口①① |①-②-|
口③⑤口 |③-④-|
⑦⑤③⑦ |⑤-⑥-|
⑧⑥④② |⑦-⑧-|
40
口口②口 |①-②-|
口③⑧① |③-④-|
口⑦④口 |⑤-⑥-|
口⑤⑥① |⑦-⑧-|
41
④①②④ |①---|
①口口② |②---|
④口口④ |③-④-|
②③③① |----|
42
口口口口 |①-②③|
①④口口 |④-⑤-|
口口③口
⑤口口②

口口⑥口
⑨口口口
口口口⑦ |⑥-⑦-|
口⑧口口 |⑧-⑨-|
43
口口口④ |①-②③|
口口③① |④-⑤-|
口②⑤口
口口口口

口⑥口口
口口口⑩
⑦口口口 |⑥-⑦⑧|
口⑧⑨口 |⑨-⑩-|
44
口口口口 |①-②③|
①④口口 |④-⑤-|
口口③口
⑤口口②

口口⑥口
⑩口口口
口口口⑦ |⑥-⑦⑧|
口⑨⑧口 |⑨-⑩-|
45
⑤⑥口口 |①-②③|
口口口① |④-⑤⑥|
②③④⑪ |⑦⑧⑨⑩|
⑨⑩⑧⑦ |⑪---|
46
口⑤口② |①-②③|
⑩口③口 |④-⑤-|
①④口口 |⑥-⑦⑧|
⑦⑧⑨⑥ |⑨-⑩-|
47
②口⑤口 |①-②③|
口③口口 |④-⑤-|
口口④①
口口口口

口口口口
⑫口口⑬
⑩口口⑪ |⑥⑦⑧⑨|
⑧⑥⑦⑨ |⑩⑪⑫⑬|
48
①③口③ |①---|
口口②口 |②---|
口②口口 |③---|
口④④④ |④---|
49
③口③口 |①---|
口②口口 |②---|
①口②口 |③---|
④④④口 |④---|
50
口①口① |①---|
口口口① |----|
口口口口 |----|
口口口口 |----|
51
②口口② |①---|
口②②口 |----|
②口①② |②---|
①口①口 |----|
52
③口口④ |①---|
口口口口 |②---|
口口口口 |③---|
②口口① |④---|
53
③口口④ |①---|
口口口口 |②---|
口口口口 |③---|
②口口① |④---|
54
③口口④ |①---|
口口口口 |②---|
口口口口 |③---|
②口口① |④---|
55
口④③口 |①---|
口口口口 |②---|
口口口口 |③---|
口①②口 |④---|
56
③口口② |①---|
口③②口 |②---|
口④①口 |③---|
④口口① |④---|
57
③口口② |①---|
口③②口 |②---|
口④①口 |③---|
④口口① |④---|
58
③口口② |①---|
口③②口 |②---|
口④①口 |③---|
④口口① |④---|
59
口③②口 |①---|
③口口② |②---|
④口口① |③---|
口④①口 |④---|
60
⑤口口③ |①-②-|
口②④口 |③④-⑤|
⑨⑥⑧口 |-⑥-⑦|
口⑩①⑦ |⑧-⑨⑩|
61
③口口⑤ |①-②-|
口④口② |③④-⑤|
口⑧⑥⑨ |-⑥-⑦|
⑦口①口 |⑧-⑨-|
62
④口口② |①---|
①口③口 |②③-④|
①口口口
口①①口

口口口口
口口口口
⑧⑤⑦口 |-⑤-⑥|
口⑨口⑥ |⑦-⑧⑨|
63
⑥③⑥⑤ |①-②-|
口⑥⑤② |③-④-|
⑥④口⑤ |⑤---|
口口①口 |⑥---|
64
口口⑧⑦ |①-②-|
口口口⑥ |③-④-|
口口口⑤ |⑤-⑥-|
①②③④ |⑦-⑧-|
65
②①口口 |①-②-|
③口口口 |③-④-|
④口口口 |⑤-⑥-|
⑤⑥⑦⑧ |⑦-⑧-|
66
⑥⑤④③ |①②③④|
⑦⑮⑯② |⑤⑥⑦⑧|
⑧⑭⑬① |⑨⑩⑪⑫|
⑨⑩⑪⑫ |⑬⑭⑮⑯|
67
③②①⑫ |①②③④|
④口⑬⑪ |⑤⑥⑦⑧|
⑤⑬口⑩ |⑨⑩⑪⑫|
⑥⑦⑧⑨ |⑬---|
68
①①口口 |①---|
①①口口 |----|
口口口口 |----|
口口口口 |----|
69
①③口② |①---|
③口口口 |②---|
口口口口 |③---|
⑤口口④ |④---⑤-|
70
口口口③ |①---②-|
⑦②口⑥ |③---④-|
④口①口 |⑤---|
口口⑤口 |⑥---⑦-|
71
口①①⑥ |①---|
⑤口口口 |②---③-|
③口口口 |④---|
口口④② |⑤---⑥-|
72
⑥口口口 |①---②-|
口①口② |③---④-|
口③口④ |⑤---|
口⑤口⑥ |⑥---|
73
口口口② |①---|
口②口口 |②---|
口口①口
①口口口

口③④口
③口口④
④口口③ |③-④-|
⑤④③⑤ |--⑤-|
74
①口口口 |①-②-|
口②④口 |③-④-|
⑤⑤③⑥ |⑤---|
口口⑦口 |--⑥⑦|
75
③口口③ |①-②-|
③口口③ |③-④-|
口口口口
④①口②

口口⑤口
口口口口
⑩⑥口⑨ |⑤-⑥-|
口⑧⑦口 |⑦⑧⑨⑩|
76
②⑤⑤口 |①-②-|
④口①口 |③-④-|
⑥口③⑥ |⑤---|
口口口口 |⑥---|
77
⑤口口① |①-②-|
口⑥②口 |③-④-|
口③口口 |⑤---|
④⑦⑤口 |--⑥⑦|
78
⑤口④口 |①-②-|
⑦口⑥③ |③-④-|
口口②口 |⑤---|
口口⑤① |--⑥⑦|
79
口口口口 |①-②-|
口口口口 |③-④⑤|
③⑤口④
①口口②

口口口⑥
⑧口⑪口
口口口口 |⑥-⑦-|
⑩⑦⑨口 |⑧⑨⑩⑪|
80
①⑨④⑩ |①②③④|
口⑦口⑧ |⑤⑥⑦⑧|
③⑤②⑥ |⑨---|
⑩口口口 |⑩---|
81
③⑤①口 |①-②-|
口口⑩⑥ |③-④-|
口⑧⑦⑨ |⑤-⑥⑦|
口②④口 |⑧-⑨⑩|
82
④口④③ |①-②-|
⑥①口⑦ |③-④-|
口口⑧⑥ |⑤---|
⑤口⑤② |⑥-⑦⑧|
83
③口口② |①-②-|
口口口口 |③-④⑤|
④①口口
口⑤口口

口口口口
⑪口口⑩
口⑨⑧口 |⑥-⑦-|
⑦口⑥口 |⑧⑨⑩⑪|
84
②⑦①⑥ |①-②③|
口③④口 |④-⑤-|
口⑦口⑥ |⑥-⑦-|
⑧⑤⑧口 |⑧---|
85
①口口⑤ |①-②-|
口②⑥口 |③-④-|
口口③口 |⑤---|
口⑤⑦④ |--⑥⑦|
86
口④口口 |①-②-|
③口口口 |③-④-|
口②口口
①口口口

口口口⑤
口口⑥口
口⑦口口 |⑤---|
口⑤口口 |--⑥⑦|
87
⑨④③⑦ |①-②③|
⑥⑧口② |④-⑤-|
①口⑥⑧ |⑥-⑦-|
口口⑤口 |⑧-⑨-|
88
口口口口 |①②③④|
口口④③ |⑤⑥⑦⑧|
⑤⑥口口
①②⑧⑦

口⑨口口
⑪口口口
口口⑩口 |⑨-⑩-|
口⑫口口 |⑪-⑫-|
89
①口口口 |①-②③|
口①口② |④-⑤-|
口口口③
⑤口口④

⑨⑧口⑧
口⑨⑦口
⑥⑦⑥口 |⑥-⑦-|
口口口口 |⑧-⑨-|
90
④口③口 |①---|
③④口① |②---|
口口④③ |③---|
②③①② |④---|

accuracy: 100%
最終更新:2022年05月05日 04:48