アットウィキロゴ
Still Lonesome
PSYQUI

EXTREME

Level: 9.9
BPM: 168
Notes(hold): 607(80)

1
□□□□ |----|
□□□□ |----|
□□□□ |----|
□□□□ |----|
2
⑧□①⑤ |①-②-|
④⑥⑤□ |③-④-|
□②③① |⑤-⑥-|
□□⑦□ |⑦-⑧-|
3
⑥□①⑤ |①-②-|
⑧□③⑦ |③-④-|
□④⑤① |⑤-⑥-|
□②□□ |⑦-⑧-|
4
□□∨□ |①---|
□□□□ |----|
②③□① |----|
□□①□ |----②③|
5
□□□□ |①---|
□∨□□ |----|
□□□□ |----|
□①□□ |----|
6
□□□□ |----|
□□□□ |----|
□□□□ |----|
□□□□

□□□□ |----|
□□□□ |----|
□□□□
□□□□
7
□□□□ |----|
□□□□ |----|
□□□□ |----|
□□□□ |----|
8
⑩□⑩□ |①---|
②③④⑤ |②③④⑤|
⑨⑧⑦⑥ |⑥⑦⑧⑨|
□①①□ |⑩---|
9
□②□□ |①---|
②□□□ |②---|
□□□□ |③-④-|
①①□① |⑤-⑥⑦|

□□⑤□
□□□③
⑥□④⑤
⑦□③□
10
□□□□ |①---|
□∨②∨ |②-③-|
□□□□ |----|
□①③① |④---|

□④④□
□∧∧□
④□□④
□③□③
11
□①①□ |①---|
□∨∨∨ |②-③-|
□②④⑥ |④-⑤-|
□□□□ |⑥-⑦-|

□□□□
□□□□
□③⑤⑦
□□□□
12
①④□□ |①-②-|
□④②③ |③-④-|
①□④□ |--⑤-|
□□④□ |⑥-⑦-|

⑥□⑥□
□□□□
□⑤□□
□⑦□□
13
□□□⑥ |①②③④|
⑤④③② |⑤-⑥-|
□□⑥① |⑦⑧⑨⑩|
□□□□ |⑪---|

□∨□∨
□□□□
⑦⑪□⑪
⑧⑨⑩□
14
□□□□ |----|
②□②□ |----|
□①□① |---①|
∧□∧□ |②---|
15
□□□□ |----|
①□①□ |----|
□□□□ |----|
□□□□ |---①|
16
∨□∨□ |①---|
□□□□ |----|
□□□□ |----|
①□①□ |----|
17
□□□□ |----|
□□□□ |----|
□□□□ |----|
□□□□ |----|
18
□□□□ |----|
①□□□ |----|
□□□□ |----|
□□□□ |--①-|
19
□□□□ |----|
□□②□ |①---|
□①□□ |--②-|
□□□□ |----|
20
□□□□ |①---|
□□□□ |-②③-|
□□□① |----|
②□②□ |----|

□□□□
∨③<□
③□③□
③∧□
21
□□□□ |----|
□□□□ |----|
□□□□ |----|
□□□□ |----|
22
□□□□ |----|
□□□□ |----|
□□□□ |----|
□□□□ |----|
23
□②□③ |①---|
□①□□ |②---|
①①①④ |③---|
□①□□ |④---|
24
□⑧⑨⑧ |①---|
□①⑦① |②③④⑤|
□⑩⑥⑩ |⑥⑦⑧-|
⑤④③② |⑨-⑩-|
25
⑩⑧⑪⑨ |①-②③|
①⑤⑥⑦ |④⑤⑥⑦|
⑧⑩⑪⑨ |⑧-⑨-|
□②③④ |⑩-⑪-|
26
⑦⑤⑨□ |①②③④|
⑤□⑥⑦ |⑤-⑥-|
⑨⑧⑨⑥ |⑦-⑧-|
①②③④ |⑨---|
27
③><① |①-②-|
□④②□ |③-④-|
⑦><⑤ |⑤-⑥-|
□⑧⑥□ |⑦-⑧-|

④□□②
□□□□
⑧□□⑥
□□□□
28
□□①① |①---|
□□②□ |②---|
□□□□ |③---|
□□□② |④-⑤⑥|

③④□④
④□□③
□□③④
⑤⑥□□
29
⑤□⑤□ |①②③④|
□④□□ |⑤-⑥-|
⑥③⑥□ |⑦---|
□□①② |⑧---|

□⑧□⑦
⑦□∨□
□∧□□
□□⑧□
30
②①□□ |①---|
□□□∨ |②---|
∧□□□ |③---|
□□①② |④---|

③□□□
④□<□
□>□④
□□□③
31
□□□□ |①---|
①>□② |②---|
②□<① |③---|
□□□□ |④---|

□□□④
□□□③
③□□□
④□□□
32
③②①□ |①--②|
□□□③ |--③-|
□②②① |-④--|
□①③□ |--⑤⑥|

□□□□
④□④□
□□⑥⑤
④□□④
33
④③②□ |①②③④|
□□⑧□ |⑤⑥⑦⑧|
□①□□ |⑨⑩⑪-|
⑦⑥⑤□ |⑫⑬⑭⑮|

□□□⑪
⑩⑨□⑪
⑫⑬⑭⑮
□□□□
34
③①①□ |①-②-|
④③③④ |③---|
□⑤□⑦ |④--⑤|
②⑥⑦□ |⑥-⑦-|
35
②③④③ |①-②-|
□□②□ |③-④⑤|
□⑤①□ |⑥--⑦|
□□□□ |--⑧-|

□□□□
⑦□⑧□
□□□□
⑧⑥⑦□
36
⑤⑤⑥⑦ |①-②-|
⑦①⑦③ |③-④-|
③④②⑥ |⑤--⑥|
□⑥⑤① |--⑦-|
37
⑤⑥⑦⑧ |①-②③|
□④□⑨ |④--⑤|
□③②□ |⑥⑦⑧⑨|
①□□□ |-⑩--|

□□□□
⑩<⑩□
∨□∧□
⑩>⑩□
38
□□□□ |----|
□□□□ |----|
□□□□ |----|
□□□□ |----|
39
⑤□□③ |①---|
②②②□ |②---|
□①④□ |③-④-|
②□②□ |⑤---|
40
□□□□ |①---|
①□②□ |②---|
□②□② |③--④|
①□①□ |⑤-⑥-|

□④□③
□⑤□⑥
□□③□
□③⑥□
41
□□□④ |①-②-|
①□③□ |③-④-|
□②□□ |⑤-⑥-|
①□□□ |⑦⑧⑨-|

□⑨⑤□
⑦⑧□□
□□⑥□
□□□□
42
□□□□ |①-②-|
□□□③ |③-④-|
③④④□ |⑤-⑥-|
①②②① |⑦-⑧-|

⑧⑦□⑤
⑤⑥⑥□
□□□⑧
□□□⑦
43
□∨②□ |①-②-|
□□□① |③-④-|
①□□□ |⑤---|
□②∧□ |⑥-⑦-|

∨□③③
□⑤□<
□□⑤<
③③□∧

□∨□④
□□□□
□⑤□□
④□□□

⑦⑥□□
□⑥□□
□⑥⑥⑥
□□□□
44
⑦⑦①□ |①-②-|
③⑧②① |③-④-|
④□⑥⑤ |⑤-⑥-|
③□⑤□ |⑦-⑧-|
45
□□⑤⑥ |①-②-|
⑩⑨⑧⑦ |③-④-|
□②□③ |⑤⑥⑦⑧|
①①□④ |⑨⑩⑪-|

□□□□
□□□□
⑪□□<
□□□□
46
③①□□ |①-②-|
□⑥□⑥ |③-④-|
①□②□ |⑤-⑥-|
④∧⑤∧ |---⑦|

□□□□
□⑦□⑦
□□□□
□□□□
47
□①□① |----|
□□□□ |①-②-|
□□③② |③-④⑤|
□□③② |----|

④<□□
□□□□
④<□□
□□□□

⑤□□□
□□□□
⑤□□□
□□□□
48
□②④□ |①-②-|
①□③□ |③-④-|
□①□② |⑤-⑥⑦|
□④□③ |--⑧-|

⑥□□⑧
⑧⑤□⑤
□□⑥□
□□⑦□
49
□②③□ |①-②-|
□□□④ |③-④-|
②④□③ |⑤-⑥-|
①□□① |⑦⑧⑨-|

⑥⑨□⑥
⑦⑧⑤□
□□□□
□□□□
50
□□□□ |①-②-|
□□□③ |③-④-|
③④④□ |⑤-⑥-|
①②②① |⑦-⑧-|

⑧⑦□⑤
⑤⑥⑥□
□□□⑧
□□□⑦
51
□∨②□ |①-②-|
□□□① |③-④-|
①□□□ |⑤---|
□②∧□ |⑥-⑦-|

∨□③③
□⑤□<
□□⑤<
③③□∧

□∨□④
□□□□
□⑤□□
④□□□

⑦⑥□□
□⑥□□
□⑥⑥⑥
□□□□
52
⑦⑦①□ |①-②-|
③⑧②① |③-④-|
④□⑥⑤ |⑤-⑥-|
③□⑤□ |⑦-⑧-|
53
□□⑤⑥ |①-②-|
⑩⑨⑧⑦ |③-④-|
□②□③ |⑤⑥⑦⑧|
①①□④ |⑨⑩⑪-|

□□□□
□□□□
⑪□□<
□□□□
54
③①□□ |①-②-|
□⑥□⑥ |③-④-|
①□②□ |⑤-⑥-|
④∧⑤∧ |--⑦-|

□□□□
□⑦□⑦
□□□□
□□□□
55
□□□□ |--①-|
□□□□ |②-③-|
②①①② |④--⑤|
□③③□ |--⑥-|

□⑤□□
⑤⑥④⑤
□⑥⑥□
④□□④
56
□□① |①---|
□□□□ |----|
②□□□ |②---|
□□□□ |----|
57
□□□□ |①---|
②>□① |----|
□□□□ |②---|
□□□□ |----|
58
②□□□ |①---|
□□□□ |----|
□□>① |②---|
□□□□ |③---|

□□□③
□□□③
□□□③
□□□□
59
□□□□ |①-②-|
□∨④□ |③---|
□①□□ |④---|
□□∧□ |⑤---|

□□□□
②<□□
□□□□
□□□□

□③□□
□∧□□
□□□□
□□□□

□⑤□□
⑤□⑤□
□⑤□□
□□⑤□
60
①□<□ |①-②-|
□>□③ |③-④-|
⑤□<□ |⑤-⑥-|
□>□⑦ |⑦-⑧-|

②□□□
□□□④
⑥□⑧□
□□□⑧
61
②□③□ |①-②-|
②□□③ |-③--|
□①□□ |④--⑤|
□③②□ |--⑥-|

⑥④□④
⑥□□□
⑤□□④
⑤□⑥⑤
62
□□□□ |①---|
□>①□ |②---|
□①<□ |③---|
□□□□ |④--⑤|

④□③④
□③②□
□②□⑤
□□□□
63
□□□□ |--①-|
②<①④ |②--③|
□②<□ |--④-|
②<③□ |--⑤-|

□□□□
⑤□□□
□⑤□□
⑤□□□
64
□□>① |①---|
□>①□ |--②-|
□□>① |③-④-|
□□□□ |⑤---|

□②□④
□③④□
④□□④
□□□□

∨□∨□
□□□□
□□□□
⑤□⑤□
65
□□□□ |----|
□□□□ |----|
□□□□ |----|
□□□□ |----|
66
□□□□ |----|
①□□□ |----|
□□□□ |----|
□□□□ |①---|
67
□□□□ |--①-|
□□②□ |----|
□①□③ |②---|
□□□□ |--③-|
68
□□□□ |--①-|
□□□□ |②---|
□□□□ |----|
①□①□ |----|

□□□□
∨②<□
②□②□
②∧□
69
□□□□ |----|
□□□□ |----|
□□□□ |----|
□□□□ |----|
70
□□□□ |①---|
□①□□ |----|
①①①□ |----|
□①□□ |----|
最終更新:2022年04月07日 14:03