アットウィキロゴ
Neuron
BEMANI Sound Team "Expander"

BASIC

Level: 4
BPM : 174
Notes: 300

1
口口口口 |----|
口口口口 |----|
口口口口 |----|
口口口口 |----|
2
口口口口 |①---|
口口口口 |----|
口①②口 |②---|
口口口口 |----|
3
口口口口 |①---|
口口①① |----|
口口口口 |----|
口口口口 |----|
4
口口口口 |①---|
口口口口 |----|
口②①口 |②---|
口口口口 |----|
5
口口口口 |①---|
①①口口 |----|
口口口口 |----|
口口口口 |----|
6
口③口口 |①---|
口②口口 |②---|
口①口口 |③---|
口口口口 |----|
7
口口③口 |①---|
口口②口 |②---|
口口①口 |③---|
口口口口 |----|
8
口③口口 |①---|
口口②口 |②---|
口①口口 |③---|
口口口口 |----|
9
口口口口 |①---|
②①①② |----|
口口口口 |②---|
口口口口 |----|
10
口口口口 |①---|
③口口口 |②---|
口②口口 |③---|
口口①口 |----|
11
口①①口 |①---|
口口口口 |----|
口②②口 |②---|
口口口口 |----|
12
口口口口 |①---|
口口口③ |②---|
口口②口 |③---|
口①口口 |----|
13
口①①口 |①---|
口口口口 |----|
口②②口 |②---|
口口口口 |----|
14
①口口口 |①---|
口②口口 |②---|
口口③口 |③---|
口口口口 |----|
15
口①①口 |①---|
口口口口 |----|
口②②口 |②---|
口口口口 |----|
16
口口口① |①---|
口口②口 |②---|
口③口口 |③---|
口口口口 |----|
17
③口口④ |①---|
①口口② |②---|
口口口口 |③---|
口口口口 |④---|
18
口②①口 |①---|
口④③口 |②---|
口口口口 |③---|
口口口口 |④---|
19
口口口口 |①---|
②口口② |---②|
口口①口 |----|
口口口口 |----|
20
口口口口 |①---|
口口口口 |②---|
口③④口 |③---|
口①②口 |④---|
21
口口口口 |①---|
口①②口 |②---|
口③③口 |③---|
口口口口 |----|
22
口①②口 |①---|
口③④口 |②---|
口口口口 |③---|
口口口口 |④---|
23
口口口口 |①---|
②口口② |---②|
口①口口 |----|
口口口口 |----|
24
口①①口 |①---|
口②②口 |----|
口口口口 |②---|
口口口口 |----|
25
口口口口 |①---|
②口口② |---②|
口①①口 |----|
口口口口 |----|
26
口口口口 |①---|
口口③② |②---|
口口④① |③---|
口口口口 |④---|
27
口口口口 |①---|
③②口口 |②---|
④①口口 |③---|
口口口口 |④---|
28
口口口口 |①---|
口②③口 |②---|
口①④口 |③---|
口口口口 |④---|
29
口②②口 |①---|
口口口口 |--②-|
口口口① |----|
口口口口 |----|
30
①口口② |①---|
③口口④ |②---|
口口口口 |③---|
口口口口 |④---|
31
口口口口 |①---|
口①②口 |----|
口①②口 |②---|
口口口口 |----|
32
口口口口 |①---|
口口口口 |----|
②口口② |②---|
口①①口 |----|
33
③口口③ |①---|
口①②口 |②---|
口口口口 |③---|
口口口口 |----|
34
口口口口 |①---|
口①口口 |----|
口口①口 |----|
口口口口 |----|
35
口口口口 |①---|
②口口口 |--②-|
②口口口 |----|
口①①口 |----|
36
口口口口 |①---|
口口①口 |----|
口①口口 |----|
口口口口 |----|
37
口口口口 |①---|
②口口② |--②-|
口口口口 |----|
口①①口 |----|
38
口口口口 |----|
口①口口 |①---|
口口①口 |----|
口口口口 |----|
39
口口口口 |①---|
口口口② |--②-|
口口口② |----|
口①①口 |----|
40
口口口口 |①---|
②①①② |----|
口口口口 |②---|
口口口口 |----|
41
②口口② |①---|
②①①② |----|
口①①口 |②---|
口口口口 |----|
42
口口口口 |①---|
②②口口 |----|
口口①口 |②---|
口口口口 |----|
43
口口口口 |①---|
②口口口 |----|
②口①口 |②---|
口口口口 |----|
44
①②③口 |①---|
口口口口 |②---|
口口口口 |③---|
口口口口 |----|
45
口口口口 |①---|
口①①口 |----|
口口口口 |②---|
口②②口 |----|
46
口口口口 |①---|
口口②② |----|
口①口口 |②---|
口口口口 |----|
47
口口口口 |①---|
口口口② |----|
口①口② |②---|
口口口口 |----|
48
口③②① |①---|
口口口口 |②---|
口口口口 |③---|
口口口口 |----|
49
口口口口 |①---|
口①①口 |----|
口口口口 |②---|
口②②口 |----|
50
口口口口 |①---|
①②口口 |②---|
口③口口 |③---|
口口口口 |----|
51
口口口口 |①---|
口口②① |②---|
口口③口 |③---|
口口口口 |----|
52
口口口口 |①---|
口口口口 |②---|
①②口口 |③---|
口③口口 |----|
53
口口口口 |①---|
口口口口 |----|
口口口① |----|
口口口口 |----|
54
③口口③ |①---|
②口口② |②---|
①口口① |③---|
口口口口 |----|
55
口①口口 |①---|
口①口口 |----|
口口口口 |②---|
口②②口 |----|
56
口④④口 |①---|
口②口口 |②---|
①口③口 |③---|
口口口口 |--④-|
57
口口口口 |----|
口口口口 |--①-|
口①①口 |----|
口口口口 |----|
58
③口口③ |①---|
②口口② |②---|
①口口① |③---|
口口口口 |----|
59
口口①口 |①---|
口口①口 |----|
口口口口 |②---|
口②②口 |----|
60
口④④口 |①---|
①口口② |②---|
口口口口 |③---|
口③③口 |--④-|
61
①口口① |----|
口口口口 |--①-|
口口口口 |----|
口口口口 |----|
62
③口口③ |①---|
口②②口 |②---|
①口口① |③---|
口口口口 |----|
63
口口①口 |①---|
口①口口 |----|
口口②口 |②---|
口②口口 |----|
64
口④④口 |①---|
口口②口 |②---|
口③口① |③---|
口口口口 |--④-|
65
口口口口 |----|
口口口口 |--①-|
口①①口 |----|
口口口口 |----|
66
③口口③ |①---|
②②②② |②---|
①口口① |③---|
口口口口 |----|
67
口①口口 |①---|
口口①口 |----|
口②口口 |②---|
口口②口 |----|
68
口④④口 |①---|
②口口① |②---|
口口口口 |③---|
口③③口 |--④-|
69
①口口① |----|
口口口口 |--①-|
口口口口 |----|
口口口口 |----|
70
口口口口 |①---|
①口口② |②---|
①口口② |----|
③③③③ |③---|
71
口口口口 |①---|
①口口口 |----|
①口②② |②---|
口口口口 |----|
72
口口口口 |①---|
口口①① |----|
口口口口 |②---|
口口②② |----|
73
口口口口 |①---|
口口口① |----|
②②口① |②---|
口口口口 |----|
74
口口口口 |①---|
①①口口 |----|
口口口口 |②---|
②②口口 |----|
75
口口③③ |①---|
口口②② |②---|
口口①① |③---|
口口口口 |----|
76
③③口口 |①---|
②②口口 |②---|
①①口口 |③---|
口口口口 |----|
77
口③③口 |①---|
口②②口 |②---|
口①①口 |③---|
口口口口 |----|
78
口口口口 |①---|
口口口口 |----|
口①①口
口口口口

②口口②
②③③②
口③③口 |②---|
口口口口 |③---|

accuracy: 100%
最終更新:2022年04月27日 03:03