アットウィキロゴ
Neuron
BEMANI Sound Team "Expander"

ADVANCED

Level: 8
BPM : 174
Notes: 513

1
口口口口 |----|
口口口口 |----|
口口口口 |----|
口口口口 |----|
2
口口④口 |①---|
口③④口 |②---|
口③②① |③---|
口口②① |④---|
3
②口口① |①-②-|
④⑥⑦③ |③-④-|
口口⑤口 |⑤-⑥-|
口口口口 |⑦---|
4
口④口口 |①---|
口④③口 |②---|
①②③口 |③---|
①②口口 |④---|
5
口口口口 |①---|
②口口① |②---|
口口口口 |③---|
口③③口 |----|
6
③③口口 |①---|
①口口口 |②---|
①口口口 |③---|
②②口口 |----|
7
口口③③ |①---|
口口口① |②---|
口口口① |③---|
口口②② |----|
8
口③③口 |①---|
口①口口 |②---|
口①口口 |③---|
口②②口 |----|
9
④④④④ |①---|
①口口② |②---|
口口口口 |③---|
口③③口 |④---|
10
口⑤⑥口 |①-②-|
③口口④ |③-④-|
口①②口 |⑤-⑥-|
口口⑦口 |--⑦-|
11
口口口口 |①-②-|
口口④③ |--③-|
①②口口 |④---|
口口口口 |----|
12
④口口④ |①---|
口③③口 |②---|
②口口② |③---|
口①①口 |④---|
13
口口口口 |①-②-|
③④口口 |--③-|
口口②① |④---|
口口口口 |----|
14
口⑤⑥口 |①-②-|
③口口④ |③-④-|
口①②口 |⑤-⑥-|
口口⑦口 |--⑦-|
15
口口口口 |①-②-|
⑤口口口 |③-④-|
①②④③ |⑤---|
口口口口 |----|
16
口口口口 |①---|
口口②口 |②---|
口口口②
口①①口

口口口口
口口口③
口口③口 |③---|
口口④④ |④---|
17
④④口口 |①---|
②③口口 |②---|
③②口口 |③---|
①①口口 |④---|
18
④口口① |①-②-|
口⑤②口 |③---|
⑥口口③ |④-⑤-|
口⑦口口 |⑥-⑦-|
19
口②②口 |-①--|
口口口① |②---|
口③③口 |----|
口口口口 |③---|
20
①口口④ |①-②-|
口②⑤口 |③---|
③口口⑥ |④-⑤-|
口口⑦口 |⑥-⑦-|
21
口口口口 |①---|
口①口② |②---|
口口口口 |③---|
口④口③ |④---|
22
④口口① |①-②-|
口⑤②口 |③---|
⑥口口③ |④-⑤-|
口⑦口口 |⑥-⑦-|
23
口②②口 |-①--|
口口口① |②---|
口③③口 |----|
口口口口 |③---|
24
口④口③ |①-②-|
口②口⑤ |③-④-|
口⑥口① |⑤-⑥-|
口⑧口⑦ |⑦-⑧-|
25
⑤口口⑤ |-①--|
②④①③ |②--③|
②④①③ |--④-|
口口口口 |⑤---|
26
口口口口 |①-②-|
⑤口口口 |③---|
口④④③ |-④--|
口②①口 |⑤---|
27
口口口③ |①-②-|
口②①④ |③-④-|
口口口口 |--⑤-|
口⑤⑥口 |⑥---|
28
口②④口 |①-②-|
口③①口 |③-④-|
口口口口 |----|
口口口口 |----|
29
口②②口 |①--②|
③口口① |--③-|
③口口① |----|
口口口口 |----|
30
口口口口 |①-②-|
⑤口口口 |③---|
口④④③ |-④--|
口②①口 |⑤---|
31
口①②口 |①---|
④②①④ |②---|
口口口口 |③---|
口③③口 |④---|
32
口④②口 |①-②-|
口①③口 |③-④-|
口口口口 |----|
口口口口 |----|
33
口口⑥口 |①---|
②⑤口② |②---|
口口④口 |③-④-|
①③口① |⑤-⑥-|
34
①①口口 |①---|
口口口口 |---②|
口口口口 |----|
②②口口 |----|
35
口口⑤口 |①---|
②④口口 |②--③|
口③③① |--④-|
口口口口 |⑤---|
36
①①口口 |①---|
口④③口 |--②-|
②②⑤口 |--③-|
口口口口 |④-⑤-|
37
口②③口 |①-②-|
①口口④ |③-④-|
口口口口 |--⑤-|
⑥口口⑤ |--⑥-|
38
①口口① |----|
①口口① |①--②|
口口口口 |----|
口口②② |----|
39
口⑤口口 |①---|
口口④② |②--③|
①③③口 |--④-|
口口口口 |⑤---|
40
①④①④ |①---|
口口口口 |②---|
口口口口 |③---|
②③②③ |④---|
41
①口口口 |①---|
③①口② |②-③-④-|
⑤⑥⑥④ |⑤---|
口⑥⑥口 |⑥---|
42
①口口② |①---|
口口口口 |②---|
口口口口 |③---|
④口口③ |④---|
43
①口口② |①---|
口口口口 |②---|
口口口口 |③---|
④口口③ |④---|
44
⑥口⑤口 |①-②-|
口④③口 |③-④-|
⑦②①口 |⑤--⑥|
口口口口 |--⑦-|
45
口①口① |①---②-|
⑤②⑤② |--③---|
口③口③ |④---|
口④口④ |⑤---|
46
②口口① |①---|
口口口口 |②---|
口口口口 |③---|
③口口④ |④---|
47
②口口① |①---|
口口口口 |②---|
口口口口 |③---|
③口口④ |④---|
48
口⑤口⑥ |①-②-|
口③④口 |③-④-|
口①②⑦ |⑤--⑥|
口口口口 |--⑦-|
49
①口①口 |①---②-|
②口②⑤ |--③---|
③口③⑤ |④---|
④口④口 |⑤---|
50
口②①③ |①---|
口口口口 |②---|
③①②口 |③---|
口口口口 |----|
51
口口口口 |①---|
口②①③ |②---|
口口口口 |③---|
③①②口 |----|
52
口口口口 |①---|
③①②口 |②---|
口口口口 |③---|
口②①③ |----|
53
口口①口 |①---|
口口口口 |②---|
口①口②
口口②口

口口口口
口④④口
③④④口 |③---|
口③口口 |④---|
54
口口口口 |①-②-|
口口口口 |③-④-|
④口口③
②口口①

口口口⑤
口口⑤口
口口口口 |⑤---|
⑥口口⑥ |--⑥-|
55
⑤①①口 |--①-|
③口口④ |--②-|
口②②口 |③-④-|
口口口口 |⑤---|
56
⑦口口口 |①-②-|
⑥③①口 |③-④-|
⑤②④口 |--⑤-|
口口口口 |⑥-⑦-|
57
口口口① |--①-|
口口口② |②-③-|
口口口③ |--④-|
口④④口 |----|
58
口口口口 |①-②-|
口口口口 |③-④-|
④口口③
②口口①

口口口⑤
口口⑤口
口口口口 |⑤---|
⑥口口⑥ |--⑥-|
59
口①①口 |--①-|
③口口④ |--②-|
⑤②②口 |③-④-|
口口口口 |⑤---|
60
口⑦⑦口 |①-②-|
⑥③①口 |③-④-|
⑤②④口 |--⑤-|
口口口口 |⑥-⑦-|
61
口口口① |--①-|
口口口② |②-③-|
口③③口 |--④-|
口④④口 |----|
62
口口口口 |①-②-|
口口口口 |③-④-|
③口口④
①口口②

⑤口口口
口⑤口口
口口口口 |⑤---|
⑥口口⑥ |--⑥-|
63
口①①⑤ |--①-|
④口口③ |--②-|
口②②口 |③-④-|
口口口口 |⑤---|
64
口口口⑦ |①-②-|
口①③⑥ |③-④-|
口④②⑤ |--⑤-|
口口口口 |⑥-⑦-|
65
①口口口 |--①-|
②口口口 |②-③-|
③口口口 |--④-|
口④④口 |----|
66
口口口口 |①-②-|
口口口口 |③---|
③③③③
①口口②

④口口口
口④口口
口口口口 |④---|
⑤口口⑤ |--⑤-|
67
口①①口 |--①-|
④口口③ |--②-|
口②②⑤ |③-④-|
口口口口 |⑤---|
68
口⑦⑦口 |①-②-|
口①③⑥ |③-④-|
口④②⑤ |--⑤-|
口口口口 |⑥-⑦-|
69
①口口口 |--①-|
②口口口 |②-③-|
口③③口 |--④-|
口④④口 |----|
70
口④④口 |①---|
②④④① |②---|
②口口① |③---|
口③③口 |④---|
71
口④口口 |①---|
口④③口 |②---|
①②③口 |③---|
①②口口 |④---|
72
①口口② |①-②-|
③⑦⑥④ |③-④-|
口⑤口口 |⑤-⑥-|
口口口口 |⑦---|
73
口口④口 |①---|
口③④口 |②---|
口③②① |③---|
口口②① |④---|
74
口口口口 |①---|
①口口② |②---|
口口口口 |③---|
口③③口 |----|
75
口口③③ |①---|
口口口① |②---|
口口口① |③---|
口口②② |----|
76
③③口口 |①---|
①口口口 |②---|
①口口口 |③---|
②②口口 |----|
77
口③③口 |①---|
口口①口 |②---|
口口①口 |③---|
口②②口 |----|
78
④④④④ |①---|
②口口① |②---|
口口口口 |③---|
口③③口 |④---|

accuracy: 100%
最終更新:2022年04月27日 03:19