アットウィキロゴ
Neuron
BEMANI Sound Team "Expander"

EXTREME

Level: 10.1
BPM : 174
Notes: 833

1
口口口口 |----|
口口口口 |----|
口口口口 |----|
口口口口 |----|
2
③口口② |①②--|
⑥口口⑦ |③-④⑤|
口①口口 |⑥-⑦-|
⑤口④⑧ |⑧---|
3
③口④口 |①-②-|
口①②④ |③-④-|
①口口②
口口口口

口口口口
⑤口口口
⑧⑥⑦口 |⑤-⑥-|
口⑦⑥⑧ |⑦-⑧-|
4
③①口② |①②--|
⑥口口⑦ |③-④⑤|
口口口口 |⑥-⑦-|
⑤口④⑧ |⑧---|
5
⑩口①① |①-②③|
④⑨②⑥ |④⑤-⑥|
⑤③⑧口 |⑦⑧⑨⑩|
口⑥口⑦ |----|
6
口①②口 |①---|
口口③口 |②---|
③③③口 |③---|
口②①口 |----|
7
口②①口 |①---|
口③口口 |②---|
口③③③ |③---|
口①②口 |----|
8
①口口口 |①---|
②口③口 |②---|
③③③② |③---|
口口口① |----|
9
①①口口 |①-②③|
⑥②口③ |④⑤-⑥|
口口④⑤
口口⑥口

⑨口口⑧
口口⑨口
口⑨口口 |⑦-⑧-|
⑦口口⑨ |⑨---|
10
口①①④ |①-②-|
口⑥口② |③-④-|
口口口⑤ |⑤-⑥-|
口口③⑦ |--⑦-|
11
⑤口④③ |①-②-|
口口③④ |--③-|
②口口口 |④---|
①②口口 |⑤---|
12
口口口⑧ |①-②-|
⑤⑤⑥口 |③-④-|
④⑦③口 |⑤-⑥-|
①①②口 |⑦-⑧-|
13
③④口⑤ |①-②-|
④③口口 |--③-|
口口口② |④---|
口口②① |⑤---|
14
口口口口 |①---|
口④口⑤ |②③④⑤|
②口③口
口①①口

⑥口口⑦
口口口口
口口口口 |⑥-⑦-|
口口⑧口 |--⑧-|
15
⑥口⑤④ |①-②-|
口③④⑤ |③-④-|
口①口② |⑤---|
口口口口 |⑥---|
16
⑪口③② |①---|
④⑤口⑩ |②③④⑤|
⑧⑨⑦⑥ |⑥⑦⑧⑨|
①口口① |⑩-⑪-|
17
口②④口 |①---|
口③⑤⑪ |②③④⑤|
⑩⑥⑧口 |⑥⑦⑧⑨|
①⑦⑨① |⑩-⑪-|
18
②⑤口③ |①-②-|
④口⑤⑥ |③---|
口④⑥口 |④-⑤-|
①⑦⑦口 |⑥-⑦-|
19
②⑤③口 |-①--|
④口⑤口 |②--③|
口口口③ |--④-|
口④口① |⑤---|
20
③口⑥② |①-②-|
⑦⑥口⑤ |③-④-|
口⑦⑤口 |⑤-⑥-|
④⑧⑧① |⑦-⑧-|
21
③口口① |①---|
口④①② |②---|
⑤口②① |③-④-|
口⑥口② |⑤-⑥-|
22
③口⑤② |①-②-|
⑥⑤口④ |③---|
口⑥④口 |④-⑤-|
口⑦⑦① |⑥-⑦-|
23
口④⑤② |-①--|
⑤口口③ |②--③|
③口口口 |--④-|
①口④口 |⑤---|
24
③口口⑦ |①-②-|
口④⑧口 |③-④-|
口②⑥口 |⑤-⑥-|
①口口⑤ |⑦-⑧-|
25
③②①④ |-①--|
②⑤⑤① |②--③|
④⑤⑤③ |--④-|
①④③② |⑤---|
26
口②①口 |①-②-|
③口口⑤ |③---|
口口口口 |-④--|
⑤④④③ |⑤---|
27
口①②口 |①-②-|
③口口⑦ |③-④-|
口④④⑤ |-⑤⑥-|
⑦口⑥③ |⑦---|
28
③口口口 |①-②-|
口②④口 |③-④⑤|
①⑤口口
口口口口

口口口⑧
口口口口
⑧口⑦口 |⑥⑦--|
⑥口口口 |⑧---|
29
②口②口 |①--②|
口⑦⑨口 |--③-|
⑤⑧⑥④ |④-⑤-|
③①③① |⑥⑦⑧⑨|
30
口①①口 |①-②-|
③口口② |③-④-|
口口口④
口口口口

口⑦⑦口
口口口口
口口⑥口 |⑤⑥--|
口⑤口口 |⑦---|
31
⑤⑪口⑪ |①②③④|
⑪⑥④⑦ |⑤⑥⑦⑧|
口②⑧③ |⑨⑩--|
①⑨⑩口 |⑪---|
32
口口口口 |①--②|
口③口② |--③④|
②口④①
①口口口

⑦口口口
口口口口
口⑥口⑦ |⑤⑥--|
口口口⑤ |⑦---|
33
口口口① |①---|
口口①口 |②③④⑤|
①④⑤口
②①口③

口⑧⑨口
⑥口口⑦
⑫口口⑬ |⑥⑦⑧⑨|
口⑩⑪口 |⑩⑪⑫⑬|
34
①⑦④口 |①-②-|
③①口⑥ |③--④|
口口④口 |--⑤-|
③⑤口② |⑥-⑦-|
35
③口口① |①-②-|
⑦③①口 |③-④⑤|
⑥⑦口④ |--⑥-|
②⑥⑧⑤ |⑦-⑧-|
36
④口⑦① |①-②-|
⑥口①③ |③-④-|
④口口口 |--⑤-|
②口⑤③ |⑥-⑦-|
37
③口口④ |①-②-|
口①②口 |③-④-|
⑥①②⑤ |--⑤-|
④⑦⑦③ |⑥-⑦-|
38
口②⑤① |----|
④①口口 |①--②|
口②①口 |--③-|
①口③口 |④-⑤-|
39
①口口③ |①-②-|
口①③⑦ |③-④⑤|
④口⑦⑥ |--⑥-|
⑤口⑥② |⑦---|
40
①口口④ |①-②-③-|
⑨⑤②⑩ |④-⑤-⑥-|
③⑪⑧⑥ |⑦-⑧-⑨-|
⑦口口⑫ |⑩-⑪-⑫-|
41
①口②口 |①---|
口③①口 |②-③-④-|
①口④口
口口①口

⑥口口⑥
口口口口
⑥口口⑥ |⑤---|
⑤⑤口口 |⑥---|
42
口①口口 |①-②③|
⑧⑨⑦⑥ |-④⑤-|
口⑤④口 |⑥⑦-⑧|
⑩⑪③② |⑨-⑩⑪|
43
口口口② |①-②-|
⑦⑧⑥⑤ |③④-⑤|
口④③口 |⑥-⑦⑧|
⑨⑩⑪① |-⑨⑩⑪|
44
④⑥⑤③ |①②③④|
口⑪⑩⑨ |⑤⑥⑦⑧|
②⑧⑦① |⑨--⑩|
口⑪⑩⑨ |--⑪-|
45
②⑧口① |①-②-③-|
⑥口⑨⑤ |④-⑤-⑥-|
④⑦口③ |⑦-⑧-|
口口⑩口 |⑨-⑩-|
46
口口①口 |①-②③|
⑥⑦⑨⑧ |-④⑤-|
口④⑤口 |⑥⑦-⑧|
②③⑪⑩ |⑨-⑩⑪|
47
②口口口 |①-②-|
⑤⑥⑧⑦ |③④-⑤|
口③④口 |⑥-⑦⑧|
①⑪⑩⑨ |-⑨⑩⑪|
48
③⑤⑥④ |①②③④|
⑨⑩⑪口 |⑤⑥⑦⑧|
①⑦⑧② |⑨--⑩|
⑨⑩⑪口 |--⑪-|
49
①口口② |①-②-③-|
⑤口口⑥ |④-⑤-⑥-|
③口口④
口口口口

⑨口⑧口
口口⑨口
口⑨⑦口 |⑦-⑧-|
口口口⑨ |⑨---|
50
口口口① |①---|
口口口② |②---|
口口口③ |③---|
①②③③ |----|
51
口口口口 |①---|
口口①② |②---|
口①口③ |③---|
口②③③ |----|
52
口口口口 |①---|
②①口口 |②---|
③口①口 |③---|
③③②口 |----|
53
①⑫⑬口 |①---|
④⑩⑪⑤ |②③④⑤|
②⑧⑨③ |⑥⑦⑧⑨|
口⑥⑦① |⑩⑪⑫⑬|
54
③⑫⑪② |①②③④|
⑤⑨口⑧ |⑤⑥⑦⑧|
①⑫⑨④ |⑨-⑩-|
⑦⑩⑫⑥ |⑪-⑫-|
55
①口⑤口 |--①-|
口④口⑤ |--②-|
③口④口 |③-④-|
口③口② |⑤---|
56
②①⑦⑦ |①-②-|
③④⑥⑤ |③-④-|
口⑦④③ |--⑤-|
口⑦①② |⑥-⑦-|
57
②②口口 |--①-|
口口口口 |②-③-|
③口③① |--④-|
③④③① |----|
58
②⑪⑫③ |①②③④|
⑧口⑨⑤ |⑤⑥⑦⑧|
④⑨⑫① |⑨-⑩-|
⑥⑫⑩⑦ |⑪-⑫-|
59
口④口① |--①-|
④⑤口口 |--②-|
口口⑤③ |③-④-|
②口③口 |⑤---|
60
⑦⑦②① |①-②-|
⑤⑥④③ |③-④-|
③④⑦口 |--⑤-|
②①⑦口 |⑥-⑦-|
61
口⑤①② |--①-|
③⑤③④ |②-③-|
口③⑤③ |--④-|
①②⑤口 |⑤---|
62
③⑫⑪② |①②③④|
⑤⑨口⑧ |⑤⑥⑦⑧|
①⑫⑨④ |⑨-⑩-|
⑦⑩⑫⑥ |⑪-⑫-|
63
①口⑤口 |--①-|
口④口⑤ |--②-|
③口④口 |③-④-|
口③口② |⑤---|
64
②①⑦⑦ |①-②-|
③④⑥⑤ |③-④-|
口⑦④③ |--⑤-|
口⑦①② |⑥-⑦-|
65
②②口口 |--①-|
口口口口 |②-③-|
③口③① |--④-|
③④③① |----|
66
②⑧⑨③ |①②③④|
⑤口⑥⑤ |⑤---|
④⑥⑨① |⑥-⑦-|
⑤⑨⑦⑤ |⑧-⑨-|
67
口④口① |--①-|
④⑤口口 |--②-|
口口⑤③ |③-④-|
②口③口 |⑤---|
68
⑦⑦②① |①-②-|
⑤⑥④③ |③-④-|
③④⑦口 |--⑤-|
②①⑦口 |⑥-⑦-|
69
口⑤①② |--①-|
③⑤③④ |②-③-|
口③⑤③ |--④-|
①②⑤口 |⑤---|
70
①⑦⑦口 |①-②-|
③⑦⑦④ |③---|
③口⑤口 |④⑤⑥-|
②口口⑥ |⑦---|
71
③口口② |①②--|
口口口口 |③-④⑤|
口①口口
⑤口④口

口口口⑨
⑥口口⑦
口口口口 |⑥-⑦-|
口口口⑧ |⑧⑨--|
72
③口④口 |①-②-|
口①②④ |③-④-|
①口口②
口口口口

口口口口
⑤口口口
⑧⑥⑦口 |⑤-⑥-|
口⑦⑥⑧ |⑦-⑧-|
73
③①口② |①②--|
口口口口 |③-④⑤|
口口口口
⑤口④口

口口口⑨
⑥口口⑦
口口口口 |⑥-⑦-|
口口口⑧ |⑧⑨--|
74
⑩①①口 |①-②③|
④⑨②⑥ |④⑤-⑥|
⑤③⑧口 |⑦⑧⑨⑩|
口⑥口⑦ |----|
75
口①②⑤ |①---|
口口③口 |②---|
③③③口 |③---|
口②①④ |④⑤--|
76
口②①口 |①---|
口③口口 |②---|
口③③③ |③---|
口①②口 |----|
77
①口口口 |①---|
②口口口 |②---|
口口口②
口口口①

口口口⑤
口口③口
③③③口 |③---|
口口口④ |④⑤--|
78
①①口口 |①-②③|
⑥②口③ |④⑤-⑥|
口口④⑤
口口⑥口

⑨口口⑧
口口⑨口
口⑨口口 |⑦-⑧-|
⑦口口⑨ |⑨---|

accuracy: 100%
最終更新:2022年04月27日 03:57