アットウィキロゴ
TOON MANIAC
Theme from"TOON MANIA"

BASIC

Level: 2
BPM: 160
Notes: 184

1
口口口口 |----|
口口口口 |----|
口口口口 |----|
口口口口 |----|
2
口口口口 |①---|
口①②口 |----|
口口口口 |②---|
口口口口 |----|
3
口口口口 |①---|
口口口口 |----|
口①②口 |②---|
口口口口 |----|
4
口口口口 |----|
口口口口 |----|
口口口口 |----|
口口口口 |----|
5
①②③④ |①---|
口口口口 |②---|
口口口口 |③---|
口口口口 |④---|
6
①口口口 |①---|
②口口口 |②---|
③口口口 |③---|
④口口口 |④---|
7
口口口口 |①---|
口口口口 |②---|
口口口④ |③---|
口①②③ |④---|
8
口④③② |①---|
口口口① |②---|
口口口口 |③---|
口口口口 |④---|
9
口口口口 |①---|
口①④口 |②---|
口②③口 |③---|
口口口口 |④---|
10
①口口口 |①---|
②口口口 |②---|
③口口口 |③---|
④口口口 |④---|
11
口口口口 |①---|
口口口口 |②---|
口口口④ |③---|
口①②③ |④---|
12
口④③② |①---|
口口口① |②---|
口口口口 |③---|
口口口口 |④---|
13
口口口口 |①---|
口①④口 |②---|
口②③口 |③---|
口口口口 |④---|
14
口①①口 |①---|
口口口口 |----|
口口口口 |----|
口口口口 |----|
15
口口口口 |①---|
口①①口 |----|
口口口口 |----|
口口口口 |----|
16
①口口① |①---|
口口口口 |----|
口口口口 |----|
口口口口 |----|
17
口口口口 |①---|
①口口① |----|
口口口口 |----|
口口口口 |----|
18
口口口口 |①---|
口口口口 |----|
口口口口 |----|
口①①口 |----|
19
口口口口 |①---|
口口口口 |----|
口①①口 |----|
口口口口 |----|
20
口口口口 |①---|
口①①口 |----|
口口口口 |----|
口口口口 |----|
21
口①①口 |①---|
口口口口 |----|
口口口口 |----|
口口口口 |----|
22
①口口① |①---|
②口口② |----|
口口口口 |②---|
口口口口 |----|
23
口口口口 |①---|
口口口口 |----|
①口口① |②---|
②口口② |----|
24
口口口① |①---|
口口口② |②---|
口口口③ |③---|
口口口④ |④---|
25
口口口口 |①---|
口口口口 |②---|
④口口口 |③---|
③②①口 |④---|
26
②③④口 |①---|
①口口口 |②---|
口口口口 |③---|
口口口口 |④---|
27
口口口口 |①---|
口④①口 |②---|
口③②口 |③---|
口口口口 |④---|
28
口口口① |①---|
口口口② |②---|
口口口③ |③---|
口口口④ |④---|
29
口口口口 |①---|
口口口口 |②---|
④口口口 |③---|
③②①口 |④---|
30
②③④口 |①---|
①口口口 |②---|
口口口口 |③---|
口口口口 |④---|
31
口口口口 |①---|
口④①口 |②---|
口③②口 |③---|
口口口口 |④---|
32
①口口口 |①---|
口②②口 |----|
口口口口 |②---|
口口口口 |----|
33
口口口口 |①---|
口口口① |----|
口②②口 |②---|
口口口口 |----|
34
口口口口 |①---|
口口口口 |----|
①口口口 |②---|
口②②口 |----|
35
口口口口 |①---|
口口口口 |----|
口②②口 |②---|
口口口① |----|
36
①口口口 |①---|
口②②口 |----|
口口口口 |②---|
口口口口 |----|
37
口口口口 |①---|
口口口① |----|
口②②口 |②---|
口口口口 |----|
38
口口口口 |①---|
口口口口 |----|
①口口口 |②---|
口②②口 |----|
39
口口口口 |①---|
口口口口 |----|
口②②口 |②---|
口口口① |----|
40
口①①口 |①---|
口口口口 |----|
口口口口 |----|
口口口口 |----|
41
口口口口 |①---|
口①①口 |----|
口口口口 |----|
口口口口 |----|
42
①口口① |①---|
口口口口 |----|
口口口口 |----|
口口口口 |----|
43
口口口口 |①---|
①口口① |----|
口口口口 |----|
口口口口 |----|
44
口口口口 |①---|
口口口口 |----|
口口口口 |----|
口①①口 |----|
45
口口口口 |①---|
口口口口 |----|
口①①口 |----|
口口口口 |----|
46
口口口口 |①---|
口①①口 |----|
口口口口 |----|
口口口口 |----|
47
口①①口 |①---|
口口口口 |----|
口口口口 |----|
口口口口 |----|
48
①口口① |①---|
②口口② |----|
口口口口 |②---|
口口口口 |----|
49
口口口口 |①---|
口口口口 |----|
①口口① |②---|
②口口② |----|
50
①口口口 |①---|
②口口口 |②---|
③口口口 |③---|
④口口口 |④---|
51
口口口口 |①---|
口口口口 |②---|
口口口④ |③---|
口①②③ |④---|
52
口④③② |①---|
口口口① |②---|
口口口口 |③---|
口口口口 |④---|
53
口口口口 |①---|
口①④口 |②---|
口②③口 |③---|
口口口口 |④---|
54
①口口口 |①---|
②口口口 |②---|
③口口口 |③---|
④口口口 |④---|
55
口口口口 |①---|
口口口口 |②---|
口口口④ |③---|
口①②③ |④---|
56
口④③② |①---|
口口口① |②---|
口口口口 |③---|
口口口口 |④---|
57
②口口② |①---|
口口口口 |----|
口①①口 |②---|
口口口口 |----|
58
口②②口 |①---|
口口口口 |----|
①口口① |②---|
口口口口 |----|
59
口口口口 |①---|
①①①① |----|
口口口口 |----|
口口口口 |----|
60
口口口口 |----|
口口口口 |----|
口口口口 |----|
口口口口 |----|

accuracy: 100%
最終更新:2022年05月07日 18:27