アットウィキロゴ
TOON MANIAC
Theme from"TOON MANIA"

ADVANCED

Level: 7
BPM: 160
Notes: 457

1
口口口口 |----|
口口口口 |----|
口口口口 |----|
口口口口 |----|
2
口⑦⑧口 |①-②-|
口⑤⑥口 |③-④-|
口③④口 |⑤-⑥-|
口①②口 |⑦-⑧-|
3
①口口② |①-②-|
③口口④ |③-④-|
口⑤⑤口 |⑤---|
口口口口 |----|
4
①①②② |①---|
口③④口 |②---|
口⑤⑥口 |③-④-|
口口口口 |⑤-⑥-|
5
④口口④ |①---|
②口口② |②---|
①口口① |③---|
③口口③ |④---|
6
⑥口口⑥ |①-②-|
⑤口①⑤ |③-④-|
④②口④ |--⑤-|
口口③口 |--⑥-|
7
⑥口口⑥ |①-②-|
⑤口①⑤ |③-④-|
④②口④ |--⑤-|
口口③口 |--⑥-|
8
口①⑤口 |①-②-|
口②⑥口 |③-④-|
口③⑦口 |⑤-⑥-|
口④⑧口 |⑦-⑧-|
9
⑥②③口 |①---|
①⑤口① |②-③-|
口口④口 |--④-|
口口口口 |⑤-⑥-|
10
⑥口口⑥ |①-②-|
⑤口①⑤ |③-④-|
④②口④ |--⑤-|
口口③口 |--⑥-|
11
⑥口口⑥ |①-②-|
⑤①口⑤ |③-④-|
④口②④ |--⑤-|
口③口口 |--⑥-|
12
口⑤①口 |①-②-|
口⑥②口 |③-④-|
口⑦③口 |⑤-⑥-|
口⑧④口 |⑦-⑧-|
13
口口口口 |①--②|
①口口① |--③-|
②口口②
③口口③

口口口口
口④⑤⑥
口口口口 |--④-|
口口口口 |⑤-⑥-|
14
①②③口 |①---|
口口口口 |--②-|
口①②③ |----|
口口口口 |③---|
15
口口口口 |①-②-|
口①②口 |--③-|
口④③口 |④-⑤-|
⑦⑥⑤口 |⑥-⑦-|
16
③②①口 |①---|
口口口口 |--②-|
口③②① |----|
口口口口 |③---|
17
口口口口 |①-②-|
口①口口 |③-④-|
口口②口
口④③口

口口口口
⑧⑦⑥口
口⑤口口 |⑤-⑥-|
口口口口 |⑦-⑧-|
18
口①②③ |①---|
口口口口 |--②-|
①②③口 |----|
口口口口 |③---|
19
口口口口 |①---|
①②③口 |--②-|
口口口口 |----|
口①②③ |③---|
20
口①②③ |①---|
口口口口 |--②-|
①②③口 |----|
口口口口 |③---|
21
④口口④ |①---|
口③③口 |②---|
②口口② |③---|
口①①口 |④---|
22
③②⑤④ |①---|
②③④⑤ |--②-|
口①①口 |③---|
口口口口 |④-⑤-|
23
口③③口 |----|
口口口口 |----|
①口口① |--①-|
②口口② |②-③-|
24
⑥口口⑥ |①-②-|
⑤①口⑤ |③-④-|
④口②④ |--⑤-|
口③口口 |--⑥-|
25
⑥口口⑥ |①-②-|
⑤口①⑤ |③-④-|
④②口④ |--⑤-|
口口③口 |--⑥-|
26
口①⑤口 |①-②-|
口②⑥口 |③-④-|
口③⑦口 |⑤-⑥-|
口④⑧口 |⑦-⑧-|
27
⑥②③口 |①---|
①⑤口① |②-③-|
口口④口 |--④-|
口口口口 |⑤-⑥-|
28
⑥口口⑥ |①-②-|
⑤口①⑤ |③-④-|
④②口④ |--⑤-|
口口③口 |--⑥-|
29
⑥口口⑥ |①-②-|
⑤①口⑤ |③-④-|
④口②④ |--⑤-|
口③口口 |--⑥-|
30
口⑤①口 |①-②-|
口⑥②口 |③-④-|
口⑦③口 |⑤-⑥-|
口⑧④口 |⑦-⑧-|
31
口⑥口口 |①--②|
①⑤口① |--③-|
②④口② |--④-|
③口口③ |⑤-⑥-|
32
①⑧②口 |①-②-|
③口④口 |③-④-|
⑤口⑥⑦ |⑤-⑥-|
口口⑥⑦ |⑦-⑧-|
33
①⑧②口 |①-②-|
③⑤④口 |③-④-|
口口⑦⑥ |⑤-⑥-|
口口⑦⑥ |⑦-⑧-|
34
①⑧②口 |①-②-|
③口④口 |③-④-|
⑤口⑥⑦ |⑤-⑥-|
口口⑥⑦ |⑦-⑧-|
35
①口②口 |①-②-|
③口④口 |③-④-|
口口口口
口口口口

口口⑧口
口⑤口口
口口⑦⑥ |⑤-⑥-|
口口⑦⑥ |⑦-⑧-|
36
口②⑧① |①-②-|
口④口③ |③-④-|
⑦⑥口⑤ |⑤-⑥-|
⑦⑥口口 |⑦-⑧-|
37
口②⑧① |①-②-|
口④⑤③ |③-④-|
⑥⑦口口 |⑤-⑥-|
⑥⑦口口 |⑦-⑧-|
38
口②⑧① |①-②-|
口④口③ |③-④-|
⑦⑥口⑤ |⑤-⑥-|
⑦⑥口口 |⑦-⑧-|
39
口②口① |①-②-|
口④⑤③ |③-④-|
口口口口 |⑤-⑥-|
⑧⑦⑥口 |⑦-⑧-|
40
①②③口 |①---|
口口口口 |--②-|
口①②③ |----|
口口口口 |③---|
41
口口口口 |①-②-|
口①②口 |--③-|
口④③口 |④-⑤-|
⑦⑥⑤口 |⑥-⑦-|
42
③②①口 |①---|
口口口口 |--②-|
口③②① |----|
口口口口 |③---|
43
口口口口 |①-②-|
口①口口 |③-④-|
口口②口
口④③口

口口口口
⑧⑦⑥口
口⑤口口 |⑤-⑥-|
口口口口 |⑦-⑧-|
44
口①②③ |①---|
口口口口 |--②-|
①②③口 |----|
口口口口 |③---|
45
口口口口 |①---|
①②③口 |--②-|
口口口口 |----|
口①②③ |③---|
46
口①②③ |①---|
口口口口 |--②-|
①②③口 |----|
口口口口 |③---|
47
④口口④ |①---|
口③③口 |②---|
②口口② |③---|
口①①口 |④---|
48
③②⑤④ |①---|
②③④⑤ |--②-|
口①①口 |③---|
口口口口 |④-⑤-|
49
口③③口 |----|
口口口口 |----|
①口口① |--①-|
②口口② |②-③-|
50
⑥口口⑥ |①-②-|
⑤①口⑤ |③-④-|
④口②④ |--⑤-|
口③口口 |--⑥-|
51
⑥口口⑥ |①-②-|
⑤口①⑤ |③-④-|
④②口④ |--⑤-|
口口③口 |--⑥-|
52
口①⑤口 |①-②-|
口②⑥口 |③-④-|
口③⑦口 |⑤-⑥-|
口④⑧口 |⑦-⑧-|
53
⑥②③口 |①---|
①⑤口① |②-③-|
口口④口 |--④-|
口口口口 |⑤-⑥-|
54
⑥口口⑥ |①-②-|
⑤口①⑤ |③-④-|
④②口④ |--⑤-|
口口③口 |--⑥-|
55
⑥口口⑥ |①-②-|
⑤①口⑤ |③-④-|
④口②④ |--⑤-|
口③口口 |--⑥-|
56
口⑤①口 |①-②-|
口⑥②口 |③-④-|
口⑦③口 |⑤-⑥-|
口⑧④口 |⑦-⑧-|
57
①口口① |-①--|
口口②口 |②---|
口④口口 |③---|
③口口③ |④---|
58
①口口① |①---|
口②口口 |②---|
口口④口 |③---|
③口口③ |④---|
59
①口口① |①---|
口口口口 |----|
①口口① |----|
口口口口 |----|
60
口口口口 |----|
口口口口 |----|
口口口口 |----|
口口口口 |----|

accuracy: 100%
最終更新:2022年05月07日 18:38