アットウィキロゴ
TOON MANIAC
Theme from"TOON MANIA"

EXTREME

Level: 9.0
BPM: 160
Notes: 573

1
口口口口 |----|
口口口口 |----|
口口口口 |----|
口口口口 |----|
2
⑧④⑧④ |①-②-|
口⑦③口 |③-④-|
口②⑥口 |⑤-⑥-|
①⑤①⑤ |⑦-⑧-|
3
口⑤口⑤ |①-②-|
⑥口口口 |③-④-|
口②④口 |⑤---|
①③①③ |---⑥|
4
口④口口 |①--②|
口①⑤⑧ |③-④-|
②③⑦⑥ |⑤-⑥-|
口口口口 |⑦-⑧-|
5
④②③① |①---|
口口口口 |②---|
口口口口 |③---|
④②③① |④---|
6
口⑥⑤④ |①-②-|
口口①口 |③-④-|
口②口③ |--⑤-|
口⑥⑤④ |--⑥-|
7
④⑤⑥口 |①-②-|
口①口口 |③-④-|
③口②口 |--⑤-|
④⑤⑥口 |--⑥-|
8
⑧口口④ |①-②-|
⑦口①③ |③-④-|
⑥⑤口② |⑤-⑥-|
口口口口 |⑦-⑧-|
9
口口口口 |①-②-|
口③③口 |③-④-|
口④②口
口①①口

⑤⑥⑦口
口口口口
口口口口 |--⑤⑥|
口⑧⑧口 |⑦-⑧-|
10
④⑤⑥口 |①-②-|
①口口口 |③-④-|
③②口口 |--⑤-|
④⑤⑥口 |--⑥-|
11
口⑥⑤④ |①-②-|
口口口① |③-④-|
口口②③ |--⑤-|
口⑥⑤④ |--⑥-|
12
⑧口口④ |①-②-|
⑦口口③ |③-④-|
⑥⑤①② |⑤-⑥-|
口口口口 |⑦-⑧-|
13
口口③④ |①--②|
口②⑤① |--③-|
口⑥口③ |--④-|
②口①口 |⑤-⑥-|
14
⑥③⑥③ |①-②-|
②口口口 |--③-|
口口口④ |④-⑤-|
①⑤①口 |⑥---|
15
⑤口口口 |①-②-|
口⑥④③ |--③-|
①②⑦口 |④-⑤-|
口口口口 |⑥-⑦-|
16
③⑥③⑥ |①-②-|
口口口② |--③-|
④口口口 |④-⑤-|
口①⑤① |⑥---|
17
口口口⑥ |①-②-|
口④⑦② |③-④-|
⑤⑧③① |⑤-⑥-|
口口口口 |⑦-⑧-|
18
⑦④⑦④ |①-②-|
②口口口 |③-④-|
口口③⑤ |⑤-⑥-|
①⑥①口 |⑦---|
19
⑦④⑦④ |①-②-|
②口口口 |③-④-|
口口③⑤ |⑤-⑥-|
①⑥①口 |⑦---|
20
⑦④⑦④ |①-②-|
②口口口 |③-④-|
口口③⑤ |⑤-⑥-|
①⑥①口 |⑦---|
21
口②④② |①---|
③①③口 |②---|
口④②④ |③---|
①③①口 |④---|
22
①④⑤① |①---|
③口口② |--②-|
口⑤④口 |③---|
②口口③ |④-⑤-|
23
①⑦⑦④ |--①-|
⑥口口⑥ |②-③-|
口口口口 |④-⑤-|
②⑤⑤③ |⑥-⑦-|
24
口⑥⑤④ |①-②-|
口①①口 |③-④-|
口②口③ |--⑤-|
口⑥⑤④ |--⑥-|
25
④⑤⑥口 |①-②-|
口①①口 |③-④-|
③口②口 |--⑤-|
④⑤⑥口 |--⑥-|
26
⑧口口④ |①-②-|
⑦①①③ |③-④-|
⑥⑤⑤② |⑤-⑥-|
口口口口 |⑦-⑧-|
27
口口口② |①-②-|
口④③口 |③-④-|
口④③口
口①①口

⑤⑥⑦口
口口口口
口口口口 |--⑤⑥|
口⑧⑧口 |⑦-⑧-|
28
④⑤⑥口 |①-②-|
①口口① |③-④-|
③②口口 |--⑤-|
④⑤⑥口 |--⑥-|
29
口⑥⑤④ |①-②-|
①口口① |③-④-|
口口②③ |--⑤-|
口⑥⑤④ |--⑥-|
30
⑧口口④ |①-②-|
⑦①①③ |③-④-|
⑥⑤⑤② |⑤-⑥-|
口口口口 |⑦-⑧-|
31
口⑥③口 |①--②|
口②口① |--③-|
⑤④口③ |--④-|
②口①口 |⑤-⑥-|
32
①口口口 |①-②-|
③②⑦⑥ |③-④-|
口⑧⑦⑥ |⑤-⑥-|
⑤④口口 |⑦-⑧-|
33
口口口口 |①-②-|
口④口口 |③-④-|
①口口口
③②口口

⑤口⑦⑥
口口⑦⑥
口口口口 |⑤-⑥-|
口⑧口口 |⑦-⑧-|
34
③口⑦⑥ |①-②-|
⑤④口口 |③-④-|
①②⑦⑥ |⑤-⑥-|
口⑧口口 |⑦-⑧-|
35
①④口口 |①-②-|
③⑧⑦⑥ |③-④-|
口②口口 |⑤-⑥-|
⑤口⑦⑥ |⑦-⑧-|
36
③口③口 |①-②-|
口口口口 |③-④-|
①②①口
口④口口

口⑧口口
口口⑦⑥
口口⑦⑥ |⑤-⑥-|
⑤口⑤口 |⑦-⑧-|
37
①口①口 |①-②-|
口②口口 |③-④-|
口④口口
③口③口

口口⑦⑥
口口⑦⑥
⑤口⑤口 |⑤-⑥-|
口⑧口口 |⑦-⑧-|
38
口④口口 |①-②-|
口口口口 |③-④-|
③②③口
①口①口

⑤口⑤口
口口⑦⑥
口⑧口口 |⑤-⑥-|
口口⑦⑥ |⑦--⑧|
39
⑤④⑤⑥ |①-②-|
口①⑦口 |③-④-|
③⑧③口 |⑤-⑥-|
口②口口 |⑦-⑧-|
40
⑥③⑥③ |①-②-|
②口口口 |--③-|
口口口④ |④-⑤-|
①⑤①口 |⑥---|
41
⑤口口口 |①-②-|
口⑥④③ |--③-|
①②⑦口 |④-⑤-|
口口口口 |⑥-⑦-|
42
③⑥③⑥ |①-②-|
口口口② |--③-|
④口口口 |④-⑤-|
口①⑤① |⑥---|
43
口口口⑥ |①-②-|
口④⑦② |③-④-|
⑤⑧③① |⑤-⑥-|
口口口口 |⑦-⑧-|
44
⑦④⑦④ |①-②-|
②口口口 |③-④-|
口口③⑤ |⑤-⑥-|
①⑥①口 |⑦---|
45
⑦④⑦④ |①-②-|
②口口口 |③-④-|
口口③⑤ |⑤-⑥-|
①⑥①口 |⑦---|
46
⑦④⑦④ |①-②-|
②口口口 |③-④-|
口口③⑤ |⑤-⑥-|
①⑥①口 |⑦---|
47
口②④② |①---|
③①③口 |②---|
口④②④ |③---|
①③①口 |④---|
48
①④⑤① |①---|
③口口② |--②-|
口⑤④口 |③---|
②口口③ |④-⑤-|
49
①⑦⑦④ |--①-|
⑥口口⑥ |②-③-|
口口口口 |④-⑤-|
②⑤⑤③ |⑥-⑦-|
50
口⑥⑤④ |①-②-|
口①①口 |③-④-|
口②口③ |--⑤-|
口⑥⑤④ |--⑥-|
51
④⑤⑥口 |①-②-|
口①①口 |③-④-|
③口②口 |--⑤-|
④⑤⑥口 |--⑥-|
52
⑧口口④ |①-②-|
⑦①①③ |③-④-|
⑥⑤⑤② |⑤-⑥-|
口口口口 |⑦-⑧-|
53
口口口② |①-②-|
口④③口 |③-④-|
口④③口
口①①口

⑤⑥⑦口
口口口口
口口口口 |--⑤⑥|
口⑧⑧口 |⑦-⑧-|
54
④⑤⑥口 |①-②-|
①口口① |③-④-|
③②口口 |--⑤-|
④⑤⑥口 |--⑥-|
55
口⑥⑤④ |①-②-|
①口口① |③-④-|
口口②③ |--⑤-|
口⑥⑤④ |--⑥-|
56
⑧口口④ |①-②-|
⑦①①③ |③-④-|
⑥⑤⑤② |⑤-⑥-|
口口口口 |⑦-⑧-|
57
口③①口 |①---|
③①③① |②---|
④②②④ |③---|
口①③口 |④---|
58
口③①口 |①---|
③①③① |②---|
④②②④ |③---|
口①③口 |④---|
59
口②①口 |①---|
口①③① |②---|
口④口口 |③---|
口①口口 |④---|
60
口口口口 |①---|
口口口口 |----|
口口口口 |----|
口口①口 |----|

accuracy: 100%
最終更新:2022年05月07日 18:49