アットウィキロゴ
ピザが食べたくてしょうがない皆さんの気持ちを代弁しました
コバヤシユウヤ(IOSYS) feat. Miko

BASIC

Level: 3
BPM: 160
Notes: 216

1
口口口口 |----|
口口口口 |----|
口口口口 |----|
口口口口 |----|
2
口口口口 |①---|
口①口口 |----|
口口①口 |----|
口口口口 |----|
3
口口口口 |①---|
口口①口 |----|
口①口口 |----|
口口口口 |----|
4
口口口口 |①---|
口①口口 |----|
口口①口 |----|
口口口口 |----|
5
②口口② |①---|
口口①口 |----|
口①口口 |②---|
口口口口 |----|
6
口口③口 |①---|
口口②口 |②---|
口口①口 |③---|
口口口口 |----|
7
口③口口 |①---|
口②口口 |②---|
口①口口 |③---|
口口口口 |----|
8
③口口口 |①---|
口②口口 |②---|
口口①口 |③---|
口口口口 |----|
9
口①①口 |①---|
口口口口 |----|
口口口口 |②---|
口②②口 |----|
10
口③口口 |①---|
口②口口 |②---|
口①口口 |③---|
口口口口 |----|
11
口口③口 |①---|
口口②口 |②---|
口口①口 |③---|
口口口口 |----|
12
口口口③ |①---|
口口②口 |②---|
口①口口 |③---|
口口口口 |----|
13
口①①口 |①---|
口口口口 |----|
口口口口 |②---|
口②②口 |----|
14
口口口口 |①---|
口口口口 |----|
①②口口 |②---|
口口口口 |----|
15
口口口口 |①---|
口口口口 |----|
口口①② |②---|
口口口口 |----|
16
口口口口 |①---|
口②①口 |----|
口口口口 |②---|
口口口口 |----|
17
口口口口 |①---|
口口口口 |----|
口①②口 |②---|
口口口口 |----|
18
口口口口 |①---|
口口口口 |----|
口口口① |②---|
口口②口 |----|
19
口口口口 |①---|
口口口口 |----|
②口口口 |②---|
口①口口 |----|
20
口①①口 |①---|
③口口③ |--②-|
口②②口 |----|
口口口口 |--③-|
21
口口口口 |----|
口口口口 |----|
口口口口 |----|
口口口口 |----|
22
口口口口 |①---|
口口口口 |----|
口口口口 |----|
口口①① |----|
23
口口口口 |①---|
口口口口 |----|
口口口口 |----|
①①口口 |----|
24
口口口口 |①---|
口口口口 |----|
①①口口 |----|
口口口口 |----|
25
口口口口 |①---|
口口口口 |----|
口口①① |----|
口口口口 |----|
26
口口口口 |①---|
口口①① |----|
口口口口 |----|
口口口口 |----|
27
口口口口 |①---|
①①口口 |----|
口口口口 |----|
口口口口 |----|
28
①①口口 |①---|
口口口口 |----|
口口口口 |----|
口口口口 |----|
29
口口①① |①---|
口口口口 |----|
口口口口 |②---|
口②②口 |----|
30
口口③口 |①---|
口②口口 |②---|
①口口口 |③---|
口口口口 |----|
31
口口口③ |①---|
口口②口 |②---|
口①口口 |③---|
口口口口 |----|
32
口口口口 |①---|
②口口② |----|
口①口口 |②---|
口口口口 |----|
33
口口口口 |①---|
②口口② |----|
口口①口 |②---|
口口口口 |----|
34
③口口口 |①---|
口②口口 |②---|
口口①口 |③---|
口口口口 |----|
35
口口口③ |①---|
口口②口 |②---|
口①口口 |③---|
口口口口 |----|
36
口口口口 |①---|
口①①口 |----|
口口口口 |----|
口口口口 |----|
37
②口口② |①---|
口口口口 |--②-|
口①①口 |----|
口口口口 |----|
38
口③口口 |①---|
口口②口 |②---|
口口口① |③---|
口口口口 |----|
39
③口口口 |①---|
口②口口 |②---|
口口①口 |③---|
口口口口 |----|
40
口口口口 |①---|
②口口② |----|
口口①口 |②---|
口口口口 |----|
41
口口口口 |①---|
②口口② |----|
口①口口 |②---|
口口口口 |----|
42
口口口③ |①---|
口口②口 |②---|
口①口口 |③---|
口口口口 |----|
43
③口口口 |①---|
口②口口 |②---|
口口①口 |③---|
口口口口 |----|
44
②口口② |①---|
口①①口 |----|
口口口口 |----|
口口口口 |--②-|
45
口口口口 |----|
口口口口 |----|
口①①口 |①---|
口口口口 |----|
46
口口口口 |①---|
①①①① |----|
口口口口 |----|
口口口口 |----|
47
①口口② |①---|
口口口口 |----|
口口口口 |②---|
口口口口 |----|
48
口口口口 |①---|
②口口① |----|
口口口口 |②---|
口口口口 |----|
49
口口口口 |①---|
口口口口 |----|
①口口② |②---|
口口口口 |----|
50
口口口口 |①---|
口口口口 |----|
口口口口 |②---|
②口口① |----|
51
口口口口 |①---|
口口口口 |----|
①口口② |②---|
口口口口 |----|
52
③口口③ |①---|
②口口① |----|
口口口口 |②---|
口口口口 |--③-|
53
口口口口 |----|
口口口口 |----|
口口口口 |----|
口口口口 |----|
54
口口口口 |①---|
口口①口 |----|
口口①口 |----|
口口口口 |----|
55
口口口口 |①---|
口①口口 |----|
口①口口 |----|
口口口口 |----|
56
口口口口 |①---|
口口口口 |----|
口口口口 |----|
口①①口 |----|
57
口口口口 |①---|
①口口① |----|
口口口口 |----|
口口口口 |----|
58
口口口口 |①---|
口口①口 |----|
口①口口 |----|
口口口口 |----|
59
口口口口 |①---|
口①口口 |----|
口口①口 |----|
口口口口 |----|
60
口口口口 |①---|
口口口口 |----|
口口口口 |----|
口①①口 |----|
61
②口口② |①---|
口口口口 |--②-|
口①①口 |----|
口口口口 |----|
62
口口③口 |①---|
口②口口 |②---|
①口口口 |③---|
口口口口 |----|
63
口口口③ |①---|
口口②口 |②---|
口①口口 |③---|
口口口口 |----|
64
口口口口 |①---|
②口口② |----|
口①口口 |②---|
口口口口 |----|
65
口口口口 |①---|
②口口② |----|
口口①口 |②---|
口口口口 |----|
66
③口口口 |①---|
口②口口 |②---|
口口①口 |③---|
口口口口 |----|
67
口口口③ |①---|
口口②口 |②---|
口①口口 |③---|
口口口口 |----|
68
②口口② |①---|
口①①口 |----|
口口口口 |----|
口口口口 |--②-|
69
口口口口 |----|
口口口口 |----|
口①①口 |①---|
口口口口 |----|
70
口口口口 |①---|
①①①① |----|
口口口口 |----|
口口口口 |----|
71
②口口② |①---|
口口口口 |----|
口①①口 |②---|
口口口口 |----|
72
口②②口 |①---|
口口口口 |----|
①口口① |②---|
口口口口 |----|
73
②口口② |①---|
口口口口 |----|
口①①口 |②---|
口口口口 |----|
74
口①②口 |①---|
口口口③ |②---|
口口口④ |③---|
口口口口 |④---|
75
口口口口 |①---|
④口口口 |②---|
③口口口 |③---|
口②①口 |④---|
76
口①②口 |①---|
口口口③ |②---|
口口口④ |③---|
口口口口 |④---|
77
口口口口 |①---|
④口口口 |②---|
③口口口 |③---|
口②①口 |④---|
78
口口口口 |----|
口口口口 |①---|
口①①口 |----|
口①①口 |----|
79
口口口口 |----|
口口口口 |----|
口口口口 |----|
口口口口 |----|

accuracy: 100%
最終更新:2022年04月28日 15:08