アットウィキロゴ
ピザが食べたくてしょうがない皆さんの気持ちを代弁しました
コバヤシユウヤ(IOSYS) feat. Miko

ADVANCED

Level: 7
BPM: 160
Notes: 404

1
口口口口 |----|
口口口口 |----|
口口口口 |----|
口口口口 |----|
2
口口口口 |①---|
口口口② |----|
口口口口 |----|
口①①口 |--②-|
3
口口口口 |①---|
①口口口 |----|
口口口口 |----|
口口口口 |----|
4
口口口口 |①---|
口口口口 |----|
口口口口 |----|
口①①口 |----|
5
口口口口 |①---|
①①①① |----|
口口口口 |----|
口口口口 |----|
6
口口③③ |①---|
口②口口 |②---|
①口口口 |③---|
口口口口 |----|
7
③③口口 |①---|
口②口口 |②---|
口口①口 |③---|
口口口口 |----|
8
口口③③ |①---|
口口②口 |②---|
口①口口 |③---|
口口口口 |----|
9
口口口口 |①---|
口②③口 |②---|
①口口④ |③---|
口口口口 |④---|
10
④口口④ |①---|
口口口口 |②---|
③口②口 |③---|
口①口口 |④---|
11
④口口④ |①---|
口口口口 |②---|
口②口③ |③---|
口口①口 |④---|
12
④口口④ |①---|
口口口口 |②---|
③口②口 |③---|
口①口口 |④---|
13
口①口口 |①---|
口口②口 |②---|
口③口口 |③---|
口口④口 |④---|
14
口口口口 |----|
①口口① |①---|
口④口口 |--②-|
口②③口 |③-④-|
15
口②①口 |----|
口口⑤口 |①-②-|
口④③口 |--③-|
口口口口 |④-⑤-|
16
口口口口 |①---|
口①口口 |----|
口口④口 |--②-|
口③②口 |③-④-|
17
①口③② |----|
⑤④口口 |①---|
口口口口 |②-③-|
口口口口 |④-⑤-|
18
口口口口 |--①-|
⑥口口⑤ |②-③-|
口④③口 |④--⑤|
口②①口 |--⑥-|
19
口①①口 |----|
口口口口 |①---|
口②②口 |②---|
口口口口 |----|
20
口①②口 |①---|
口②①口 |--②-|
口④③口 |--③-|
口口⑤口 |④-⑤-|
21
口口口口 |----|
口口口口 |----|
口口口口 |①---|
①口口① |----|
22
口口口口 |①---|
口口口口 |②---|
②口口④ |③---|
口①③口 |④---|
23
口口口口 |①---|
②③①② |②---|
口①③口 |③---|
口口口口 |----|
24
③口口① |①---|
口④②口 |②---|
口口口口 |③---|
口口口口 |④---|
25
口口口口 |①---|
口口口口 |②---|
②①③② |③---|
口③①口 |----|
26
口口口口 |①---|
口口口口 |②---|
口②④口 |③---|
①口口③ |④---|
27
②①③② |①---|
口③①口 |②---|
口口口口 |③---|
口④⑤口 |④-⑤-|
28
②口口② |----|
①③③① |①---|
口③③口 |②---|
口口口口 |--③-|
29
口口口口 |----|
口口口口 |----|
口口口口 |----|
口口口口 |----|
30
口口口⑤ |①-②-|
口②④口 |③-④-|
口③①口 |⑤--⑥|
口⑥⑥口 |----|
31
⑤口口口 |①-②-|
口④②口 |③-④-|
口①③口 |⑤--⑥|
口⑥⑥口 |----|
32
口②①口 |①---|
②口口① |②---|
③口口④ |③---|
口③④口 |④---|
33
③口口④ |①-②-|
口口口口 |③-④-|
口①②口 |----|
口口口口 |----|
34
口口口⑤ |①-②-|
口②④口 |③-④-|
口③①口 |⑤--⑥|
口⑥⑥口 |----|
35
⑤口口口 |①-②-|
口④②口 |③-④-|
口①③⑦ |⑤--⑥|
口⑥⑥口 |--⑦-|
36
②口口② |①---|
口②②口 |--②-|
①口口口
口口口口

口口口口
口口口口
③口口④ |----|
口口口口 |③-④-|
37
①口口① |----|
口①①口 |--①-|
口口口口 |----|
口口口口 |----|
38
⑤口口口 |①-②-|
口④②口 |③-④-|
口①③口 |⑤--⑥|
口⑥⑥口 |----|
39
口口口⑤ |①-②-|
口②④口 |③-④-|
口③①口 |⑤--⑥|
口⑥⑥口 |----|
40
口①②口 |①---|
①口口② |②---|
④口口③ |③---|
口④③口 |④---|
41
④口口③ |①-②-|
口口口口 |③-④-|
口②①口 |----|
口口口口 |----|
42
⑤口口口 |①-②-|
口④②口 |③-④-|
口①③口 |⑤--⑥|
口⑥⑥口 |----|
43
口口口⑤ |①-②-|
口②④口 |③-④-|
⑦③①口 |⑤--⑥|
口⑥⑥口 |--⑦-|
44
②口口② |①---|
口②②口 |--②-|
口③口① |----|
口口④口 |③-④-|
45
口口④口 |----|
①③口② |①---|
①口口② |②---|
口口口口 |③-④-|
46
口口口口 |--①-|
口口口口 |----|
口①①口 |----|
口①①口 |----|
47
口口口口 |①---|
④口③口 |②---|
口②口① |③---|
口口口口 |④---|
48
③①①口 |①---|
口口口口 |----|
口②口口 |②---|
口口口口 |③---|
49
口口口① |①---|
口口口口 |②---|
口②②口 |----|
口口口口 |----|
50
②口口① |①-②-|
口④③口 |③-④-|
⑥口口⑤ |⑤-⑥-|
口⑧⑦口 |⑦-⑧-|
51
口⑥⑤口 |①-②-|
④⑧⑦③ |③-④-|
口②①口 |⑤-⑥-|
口口口口 |⑦-⑧-|
52
②口口① |①---|
②口口③ |--②-|
口口口③ |--③-|
④④口口 |--④-|
53
口口口① |----|
口口①口 |--①-|
口口口口 |----|
口口口口 |----|
54
口口口口 |①---|
口口口口 |----|
①②口口 |②---|
②①口口 |----|
55
口口口口 |①---|
口口口口 |----|
口口②① |②---|
口口①② |----|
56
口口口口 |①---|
口①①口 |----|
口口口口 |②---|
口②②口 |----|
57
②口口② |①---|
口口口口 |--②-|
口①①口 |----|
口口口口 |----|
58
口口口口 |①---|
口口口口 |②---|
①③②口 |③---|
③①口口 |----|
59
口口口口 |①---|
口口口口 |②---|
口②③① |③---|
口口①③ |----|
60
②口口② |①---|
口②②口 |--②-|
④口口③ |----|
口①①口 |③-④-|
61
①口口① |----|
口①①口 |--①-|
口口口口 |----|
口口口口 |----|
62
口口口⑤ |①-②-|
口②④口 |③-④-|
口③①口 |⑤--⑥|
口⑥⑥口 |----|
63
⑤口口口 |①-②-|
口④②口 |③-④-|
口①③口 |⑤--⑥|
口⑥⑥口 |----|
64
口②①口 |①---|
②口口① |②---|
③口口④ |③---|
口③④口 |④---|
65
③口口④ |①-②-|
口口口口 |③-④-|
口①②口 |----|
口口口口 |----|
66
口口口⑤ |①-②-|
口②④口 |③-④-|
口③①口 |⑤--⑥|
口⑥⑥口 |----|
67
⑤口口口 |①-②-|
口④②口 |③-④-|
口①③⑦ |⑤--⑥|
口⑥⑥口 |--⑦-|
68
②口口② |①---|
口②②口 |--②-|
①口③口 |----|
口④口口 |③-④-|
69
口④口口 |----|
②口③① |①---|
②口口① |②---|
口口口口 |③-④-|
70
口口口口 |--①-|
口口口口 |----|
口①①口 |----|
口①①口 |----|
71
③③口口 |①---|
口②口口 |②---|
口口①口 |③---|
口口口口 |----|
72
口口③③ |①---|
口口②口 |②---|
口①口口 |③---|
口口口口 |----|
73
口口口口 |①---|
口②③口 |②---|
①口口④ |③---|
口口口口 |④---|
74
④口口④ |①---|
口口口口 |②---|
③口②口 |③---|
口①口口 |④---|
75
④口口④ |①---|
口口口口 |②---|
口②口③ |③---|
口口①口 |④---|
76
④口口④ |①---|
口口口口 |②---|
③口②口 |③---|
口①口口 |④---|
77
口①口口 |①---|
口口②口 |②---|
口③口口 |③---|
口口④口 |④---|
78
口口口口 |----|
①口口① |①---|
①口口① |----|
口口口口 |----|
79
①口口① |----|
口①①口 |--①-|
口口口口 |----|
口口口口 |----|

accuracy: 100%
最終更新:2022年04月28日 15:20