アットウィキロゴ
ピザが食べたくてしょうがない皆さんの気持ちを代弁しました
コバヤシユウヤ(IOSYS) feat. Miko

EXTREME

Level: 10.4
BPM : 160
Notes: 880

1
口口口口 |----|
口口口口 |----|
口口口口 |----|
口口口口 |----|
2
口口口口 |①---|
口口口口 |----|
①口①口
①口①口

口②口②
口口口口
③口③口 |②---|
③口③口 |--③-|
3
②口②口 |①---|
口口口口 |----|
口①口① |②---|
口①口① |----|
4
口口口口 |①---|
口口②口 |②---|
①②①口
①口①口

③口口④
⑤口口⑥
⑦口口⑧ |③④⑤⑥|
⑨口口⑩ |⑦⑧⑨⑩|
5
口口口口 |①---|
口③②口 |----|
口②③口 |②---|
口①口口 |③---|
6
①④口⑪ |①②③-|
⑧口⑤⑦ |④⑤-⑥|
①⑨口② |-⑦-⑧|
口⑥⑩③ |⑨⑩-⑪|
7
①④口口 |①②③-|
口口⑤口 |④⑤-⑥|
①口口②
口⑥口③

⑪口口口
⑧口口⑦
口⑨⑩口 |-⑦-⑧|
口口口口 |⑨⑩-⑪|
8
⑪口④① |①②③-|
⑦⑤口⑧ |④⑤-⑥|
②口⑨① |-⑦-⑧|
③⑩⑥口 |⑨⑩-⑪|
9
口③②口 |①-②-|
口口口口 |-③--|
②口口③
口口口①

口口⑦⑥
口⑤④口
口④⑤口 |④--⑤|
口口口口 |--⑥⑦|
10
①④口⑪ |①②③-|
⑧口⑤⑦ |④⑤-⑥|
①⑨口② |-⑦-⑧|
口⑥⑩③ |⑨⑩-⑪|
11
①④口口 |①②③-|
口口⑤口 |④⑤-⑥|
①口口②
口⑥口③

⑪口口口
⑧口口⑦
口⑨⑩口 |-⑦-⑧|
口口口口 |⑨⑩-⑪|
12
⑪口④① |①②③-|
⑦⑤口⑧ |④⑤-⑥|
②口⑨① |-⑦-⑧|
③⑩⑥口 |⑨⑩-⑪|
13
口②②口 |①-②-|
⑤③①④ |③---|
⑦口口⑥ |④⑤⑥⑦|
③⑧⑧① |⑧---|
14
①口口① |①---|
口口口口 |②---|
口口口口
②口口②

⑤④④口
④口口④
③口⑤③ |--③-|
口③③口 |④-⑤-|
15
口口口① |----|
口②口口 |①-②-|
口①⑤③ |--③-|
口④口口 |④-⑤-|
16
口口口口 |①---|
①口口口 |----|
口口口口
口口口口

口③③④
③口口③
②④口② |--②-|
口②②口 |③-④-|
17
①口②口 |----|
口③④口 |①---|
口⑤①口 |②-③-|
口口口口 |④-⑤-|
18
口②②口 |--①-|
②口口② |②-③-|
①口口①
口①①③

口口口口
口口口口
口⑥④口 |④--⑤|
⑤口⑥口 |--⑥-|
19
①④④① |----|
④口口④ |①---|
③口口③ |②---|
②③③② |③-④-|
20
①⑥⑥① |①---|
④②③⑤ |②-③-|
⑤③②④ |--④-|
口⑥⑥口 |⑤-⑥-|
21
口④口③ |--①-|
口口⑤口 |②---|
口④口③ |③--④|
②口⑤① |--⑤-|
22
①口口⑤ |①-②-|
口③⑦口 |③-④-|
①⑥②口 |⑤-⑥-|
⑧口口④ |⑦-⑧-|
23
⑤口口口 |①-②-|
⑥口口⑥ |③-④-|
①口口④ |⑤---|
口②③⑤ |--⑥-|
24
口⑤①口 |①-②-|
口⑦③口 |③-④-|
口⑧④口 |⑤-⑥-|
口⑥②口 |⑦-⑧-|
25
口口口⑤ |①-②-|
③口口① |③-④-|
②口口④ |⑤---|
⑤口口口 |----|
26
①③⑦⑤ |①-②-|
口口口口 |③-④-|
口口口口 |⑤-⑥-|
⑥⑧④② |⑦-⑧-|
27
⑤口口口 |①-②-|
⑥②③⑦ |③-④-|
①口口④ |⑤---|
口⑦⑥⑤ |⑥-⑦-|
28
②④③① |----|
口③④口 |①---|
口④③口 |②---|
①③④② |③-④-|
29
⑧口口① |①②③④|
②口口⑦ |⑤⑥⑦⑧|
⑥口口③
④口口⑤

口口口⑩
口⑨口口
口口⑨口 |⑨---|
口口口口 |⑩---|
30
⑤④④⑤ |①-②-|
④⑥⑦④ |③-④-|
③⑦⑥③ |⑤--⑥|
①③③② |--⑦-|
31
⑤③④⑤ |①-②-|
③口⑥④ |③-④-|
③⑥口④ |⑤--⑥|
②③④① |----|
32
口口③⑧ |①-②-|
②口口口 |③-④⑤|
口口⑤④ |--⑥-|
⑥①口⑦ |⑦-⑧-|
33
口①④口 |①-②-|
①口口④ |③-④-|
②口口③ |----|
口②③口 |----|
34
⑤④④⑤ |①-②-|
④⑥⑦④ |③-④-|
③⑦⑥③ |⑤--⑥|
①③③② |--⑦-|
35
口③④口 |①-②-|
③口口④ |③-④-|
③口口④
②③④①

⑤口口⑤
口⑤⑥口
口⑥⑤口 |⑤--⑥|
⑦口口口 |--⑦-|
36
口②口② |①---|
口口口口 |--②-|
①口②口
口①②口

口口口口
口③④口
③口口④ |----|
④口口③ |③-④-|
37
③口③口 |--①-|
②⑤④① |②-③-|
口③⑥口 |--④-|
口③口口 |⑤-⑥-|
38
⑤④④⑤ |①-②-|
④⑦⑥④ |③-④-|
③⑥⑦③ |⑤--⑥|
②③③① |--⑦-|
39
⑤④③⑤ |①-②-|
④⑥口③ |③-④-|
④口⑥③ |⑤--⑥|
①④③② |----|
40
⑧③口口 |①-②-|
口口口② |③-④⑤|
④⑤口口 |--⑥-|
⑦口①⑥ |⑦-⑧-|
41
⑦④①⑤ |①-②-|
④⑧⑥① |③-④-|
③⑩⑨② |-⑤⑥⑦|
口③②口 |⑧-⑨⑩|
42
⑤③④⑤ |①-②-|
③⑦⑥④ |③-④-|
③⑥⑦④ |⑤--⑥|
②③④① |--⑦-|
43
口④③口 |①-②-|
④口口③ |③-④-|
④口口③
①④③②

⑤口口⑤
口⑥⑤口
口⑤⑥口 |⑤--⑥|
口口口⑦ |--⑦-|
44
②口②口 |①---|
口口口口 |--②-|
口②口①
口②①口

口口口口
口④③口
④口口③ |----|
③口口④ |③-④-|
45
①④①④ |----|
口④④④ |①---|
口口④口 |②---|
②③②③ |③-④-|
46
①口②口 |--①②|
⑤口口口 |③④⑤⑥|
口③口④
口口⑥口

口口⑭口
口⑪口⑩
⑬口⑫口 |⑦⑧⑨⑩|
⑦⑨口⑧ |⑪⑫⑬⑭|
47
①口口⑧ |①②③④|
⑦口⑥口 |⑤⑥⑦⑧|
口③口②
⑤口④口

口⑨口口
口⑮口⑭
⑪口⑩口 |⑨⑩⑪⑫|
口⑬⑯⑫ |⑬⑭⑮⑯|
48
①口口口 |①---|
口口口口 |--②③|
口①③②
口口口口

⑥④口口
④⑥口⑤
口口口口 |④-⑤-|
口口口⑦ |⑥-⑦-|
49
口口口① |①-②-|
③口①口 |③-④-|
②③口④
口②④口

口口口口
口口口口
⑥口口口 |----|
口⑤口口 |--⑤⑥|
50
口⑥⑦口 |①②③④|
⑤①口⑧ |⑤⑥⑦⑧|
口④②口
口口③口

⑩口口⑬
口⑫⑪口
⑭口⑮⑨ |⑨-⑩⑪|
口口口口 |⑫⑬⑭⑮|
51
⑥④②⑧ |①-②-|
②⑧⑥④ |③-④-|
口口口口 |⑤-⑥-|
⑤①③⑦ |⑦-⑧-|
52
④③①④ |①---|
③⑤④③ |②-③-|
⑤①③⑤ |--④-|
②②⑤口 |--⑤-|
53
口口①口 |----|
口口口① |--①-|
口口口口 |----|
口口口口 |----|
54
②③②③ |①---|
口①口口 |②---|
口②③口 |③---|
①口①口 |----|
55
口③②口 |①---|
口口①口 |②---|
③②③② |③---|
口①口① |----|
56
口口⑤④ |①-②-|
口③口⑧ |③-④⑤|
⑥口口② |--⑥-|
口①⑦口 |⑦-⑧-|
57
④①口④ |①-②-|
口③口口 |③-④-|
④口②④ |----|
口口口口 |----|
58
②③②③ |①---|
口①④口 |②---|
口②③口 |③---|
①④①④ |④---|
59
②口②口 |①---|
口①口口 |②---|
口②口口
①口①口

口③口③
口口口④
口口③口 |③---|
④口口口 |--④-|
60
口②口② |①---|
①口口口 |--②-|
口口②口
口口②①

口口口口
③口口④
口口口口 |----|
④口口③ |③-④-|
61
①口①口 |----|
口②口口 |--①-|
口①②口 |----|
口①口口 |②---|
62
⑤④④⑤ |①-②-|
④⑥⑦④ |③-④-|
③⑦⑥③ |⑤--⑥|
①③③② |--⑦-|
63
⑤③④⑤ |①-②-|
③口⑥④ |③-④-|
③⑥口④ |⑤--⑥|
②③④① |----|
64
口口③⑧ |①-②-|
②口口口 |③-④⑤|
口口⑤④ |--⑥-|
⑥①口⑦ |⑦-⑧-|
65
⑤①④⑦ |①-②-|
①⑥⑧④ |③-④-|
②⑨⑩③ |-⑤⑥⑦|
口②③口 |⑧-⑨⑩|
66
⑤④③⑤ |①-②-|
④⑥⑦③ |③-④-|
④⑦⑥③ |⑤--⑥|
①④③② |--⑦-|
67
口③④口 |①-②-|
③口口④ |③-④-|
③口口④
②③④①

⑤口口⑤
口⑤⑥口
口⑥⑤口 |⑤--⑥|
⑦口口口 |--⑦-|
68
口②口② |①---|
口口口口 |--②-|
①口②口
口①②口

口口口口
口③④口
③口口④ |----|
④口口③ |③-④-|
69
④①④① |----|
④④④口 |①---|
口④口口 |②---|
③②③② |③-④-|
70
口②口① |--①-|
口口口口 |②-③-|
口口口口
口口口③

口口口⑨
⑥口口⑤
口⑦口口 |④⑤-⑥|
口④⑧口 |⑦⑧-⑨|
71
①④口口 |①②③-|
口口⑤口 |④⑤-⑥|
①口口②
口⑥口③

⑪口口口
⑧口口⑦
口⑨⑩口 |-⑦-⑧|
口口口口 |⑨⑩-⑪|
72
⑪口④① |①②③-|
⑦⑤口⑧ |④⑤-⑥|
②口⑨① |-⑦-⑧|
③⑩⑥口 |⑨⑩-⑪|
73
口③②口 |①-②-|
口口口口 |-③--|
②口口③
口口口①

口口⑦⑥
口⑤④口
口④⑤口 |④--⑤|
口口口口 |--⑥⑦|
74
①④口⑪ |①②③-|
⑧口⑤⑦ |④⑤-⑥|
①⑨口② |-⑦-⑧|
口⑥⑩③ |⑨⑩-⑪|
75
①④口口 |①②③-|
口口⑤口 |④⑤-⑥|
①口口②
口⑥口③

⑪口口口
⑧口口⑦
口⑨⑩口 |-⑦-⑧|
口口口口 |⑨⑩-⑪|
76
⑪口④① |①②③-|
⑦⑤口⑧ |④⑤-⑥|
②口⑨① |-⑦-⑧|
③⑩⑥口 |⑨⑩-⑪|
77
口②②口 |①-②-|
⑤③①④ |③---|
⑦口口⑥ |④⑤⑥⑦|
③⑧⑧① |⑧---|
78
口口口口 |----|
口①①口 |①---|
口①①口 |----|
①口口① |----|
79
①③③② |----|
③口口③ |--①-|
④口口④ |②-③-|
②④④① |④---|

accuracy: 100%
最終更新:2022年04月29日 12:26