Scarlet Moon [ 2 ]
REDALiCE feat. Ayumi Nomiya
EXTREME
Level: 9.5
BPM: 180
Notes(
hold): 765(40)
 
1
①口口② |①---|
口口口口 |----|
口口口口 |②---|
口口口口 |----|
2
口口口口 |①---|
口口口口 |----|
口口口口 |②---|
②口口① |----|
3
口口口口 |①---|
口①②口 |②---|
口④③口 |③---|
口口口口 |④---|
4
口口∨口 |①-②-|
①③口 |③-④-|
口⑦⑤< |⑤-⑥-|
口∧口口 |⑦-⑧-|
口口口口
口24口
口86口
口口口口
5
①②①② |①-②-|
口③③口 |--③-|
口口口口 |④--⑤|
口口口口 |--⑥-|
口口⑥口
口口口⑥
④口④口
⑤口⑤口
6
②①⑥口 |--①-|
⑤口口口 |--②-|
口④口① |--③④|
口③口② |⑤-⑥-|
7
③口口口 |①-②-|
口①③① |--③-|
②口②口 |④--⑤|
口口口口 |--⑥-|
口⑥口口
⑥口口口
口④口④
口⑤口⑤
8
口口①② |--①-|
⑥口口③ |--②-|
①口④口 |--③④|
②口⑤口 |⑤-⑥-|
9
③①①③ |①-②-|
口口口口 |--③-|
口②口② |④--⑤|
口口口口 |--⑥-|
口口⑥口
口口口⑥
④口④口
⑤口⑤口
10
②①口⑥ |--①-|
⑤口口口 |--②-|
口④口① |--③④|
口③口② |⑤-⑥-|
11
③①①口 |①-②-|
口④④③ |③-④-|
②口口② |--⑤-|
口口口口 |⑥-⑦-|
口⑦口口
⑦口口口
口⑥⑥口
口⑤口⑤
12
口口①② |--①-|
口口口口 |--②-|
①④⑤口 |--③-|
②口③口 |④-⑤-|
13
③①⑧⑧ |①-②-|
①口④④ |③-④-|
口⑦口② |⑤-⑥-|
⑤⑤⑥口 |⑦-⑧-|
14
③⑤⑧口 |①-②-|
①①④口 |③-④-|
⑦口②口 |⑤-⑥-|
口口⑥口 |⑦-⑧-|
15
③⑤⑧⑧ |①-②-|
⑤口④④ |③-④-|
口①②口 |⑤-⑥-|
①⑦⑥口 |⑦-⑧-|
16
③⑤口口 |①-②-|
⑥口④⑥ |③-④-|
①①②口 |⑤-⑥-|
⑦⑧⑧⑦ |⑦-⑧-|
17
口口口① |①---|
②口口② |----|
口①①口 |--②-|
③④④③ |③-④-|
18
①口口口 |①---|
口口口口 |----|
口①①口 |--②-|
口口口口 |③-④-|
口口口②
口③口口
口口④口
口口口口
19
③①⑧⑧ |①-②-|
①口④④ |③-④-|
口⑦口② |⑤-⑥-|
⑤⑤⑥口 |⑦-⑧-|
20
口⑤口口 |①-②-|
①①口口 |③-④-|
③口④② |⑤---|
口口口口 |⑥-⑦-|
口口口口
口⑦口口
口⑥口口
口口口口
21
①口①口 |①---|
∧③∧③ |----|
口口口口 |②---|
口口口口 |--③-|
2口2口
口口口口
口口口口
口口口口
22
口口口口 |①---|
口口口口 |----|
口∨口∨ |②---|
③①③① |--③-|
口口口口
口口口口
口口口口
口2口2
23
①③①③ |①---|
∧口∧口 |----|
口口口口 |②---|
口口口口 |--③-|
2口2口
口口口口
口口口口
口口口口
24
口口口口 |①---|
口口口口 |----|
口∨口∨ |②---|
④①③① |③-④-|
口口口口
口口口口
口口口口
口2口2
25
口口口口 |①-②-|
④⑤③⑤ |③-④-|
②⑥①⑥ |⑤--⑥|
口⑦口⑦ |--⑦-|
26
口⑤口⑤ |①-②-|
④⑥③⑥ |③-④-|
②⑦①⑦ |⑤--⑥|
口口口口 |--⑦-|
27
①⑤①⑤ |①--②|
③④③④ |--③-|
⑥口口⑥ |④--⑤|
口②②口 |--⑥-|
28
口口口口 |①-②-|
口口口口 |③-④-|
⑧②①⑦ |⑤-⑥-|
⑥④③⑤ |⑦-⑧-|
29
①口④① |①--②|
口②②④ |--③-|
⑤⑥口口 |④---|
④③③口 |⑤-⑥-|
30
④口口① |①-②-|
②口③口 |③-④-|
口口口口 |⑤-⑥⑦|
口口⑤口 |⑧-⑨-|
口口口口
口⑥口口
⑨⑦⑧口
∧⑨<口
31
口⑤③① |①-②-|
口⑥④② |③-④-|
5口口口 |⑤-⑥-|
口5⑧⑦ |⑦-⑧-|
32
①口口④ |①-②-|
口口口口 |③-④-|
口口口② |⑤-⑥⑦|
③⑤口口 |⑧-⑨-|
口口⑨<
口⑧⑦⑨
口口⑥∧
口口口口
33
口口5口 |①-②-|
⑧⑦口5 |③-④-|
①③⑤口 |⑤-⑥-|
②④⑥口 |⑦-⑧-|
34
②④口① |①-②-|
口口口口 |③-④-|
口口口③ |⑤-⑥⑦|
口口⑤口 |⑧-⑨-|
口口口口
口⑥口口
⑨⑦⑧口
∧⑨<口
35
口⑤③① |①-②-|
口⑥④② |③-④-|
5口⑦⑧ |⑤-⑥-|
口5口口 |⑦-⑧-|
36
①⑧②⑧ |①-②-|
⑥口口⑥ |③-④-|
口口⑦口 |⑤-⑥-|
③⑤④⑤ |⑦-⑧-|
37
②口②口 |--①-|
口②口口 |②---|
口①口① |----|
③④口口 |③-④-|
38
④口口① |①-②-|
②口③口 |③-④-|
口口口口 |⑤-⑥⑦|
口口⑤口 |⑧-⑨-|
口口口口
口⑥口口
⑨⑦⑧口
∧⑨<口
39
口⑤③① |①-②-|
口⑥④② |③-④-|
5口口口 |⑤-⑥-|
口5⑧⑦ |⑦-⑧-|
40
①口口④ |①-②-|
口口口口 |③-④-|
口口口② |⑤-⑥⑦|
③⑤口口 |⑧-⑨-|
口口⑨<
口⑧⑦⑨
口口⑥∧
口口口口
41
口口5口 |①-②-|
⑧⑦口5 |③-④-|
①③⑤口 |⑤-⑥-|
②④⑥口 |⑦-⑧-|
42
②④口① |①-②-|
口口口口 |③-④-|
口口口③ |⑤-⑥⑦|
口口⑤口 |⑧-⑨-|
口口口口
口⑥口口
⑨⑦⑧口
∧⑨<口
43
口⑤③① |①-②-|
口⑥④② |③-④-|
5口⑦⑧ |⑤-⑥-|
口5口口 |⑦-⑧-|
44
口⑧口⑧ |①-②-|
④⑤口④ |③-④-|
口①⑦口 |⑤-⑥-|
③⑥②⑥ |⑦-⑧-|
45
②口②口 |--①-|
口口口口 |②---|
②①口① |----|
口口口口 |----|
46
口口口口 |①---|
口①②口 |----|
口口口口 |②---|
口口口口 |----|
47
口口口口 |①---|
口口口口 |----|
口②①口 |②---|
口口口口 |----|
48
口口∨口 |①-②-|
①③口 |③-④-|
口⑦⑤< |⑤-⑥-|
口∧口口 |⑦-⑧-|
口口口口
口24口
口86口
口口口口
49
口③④口 |①-②-|
②⑦⑦⑤ |③-④-|
①⑧⑧⑥ |⑤-⑥-|
口口口口 |⑦-⑧-|
50
口③④③ |①-②-|
①口口口 |--③-|
⑤口⑤口 |④--⑤|
②④①② |--⑥-|
口口口口
口口口口
口口口⑥
口>⑥∧
51
①③⑤口 |①-②-|
②④⑥⑦ |③-④-|
口⑦⑧5 |⑤-⑥-|
口⑧5口 |⑦-⑧-|
52
④口口① |①-②-|
①口口口 |③-④-|
②口口口 |⑤-⑥⑦|
口口⑤③ |⑧-⑨-|
⑨口口
⑨⑦⑧口
∧⑥口口
口口口口
53
口5口口 |①-②-|
5⑧⑦⑧ |③-④-|
口⑤③① |⑤-⑥-|
⑦⑥④② |⑦-⑧-|
54
①口④① |①-②-|
口口口口 |③-④-|
③口口口 |⑤-⑥⑦|
口⑤口② |⑧-⑨-|
口口口口
口口⑥口
口⑧⑦⑨
口>⑨∧
55
①③⑤口 |①-②-|
②④⑥⑧ |③-④-|
⑦口口5 |⑤-⑥-|
口⑦5⑧ |⑦-⑧-|
56
③④④② |①-②-|
①口口口 |③-④-|
口③②口 |⑤-⑥-|
①口口口 |⑦-⑧-|
口口口口
⑧⑤⑦⑧
口口口口
口⑥⑥口
57
口②口② |--①-|
④口口口 |②---|
②①①② |----|
③口④③ |③-④-|
58
①口①④ |①-②-|
口③口② |③-④-|
口口口口 |⑤-⑥⑦|
口⑤口口 |⑧-⑨-|
口口口口
口口⑥口
口⑧⑦⑨
口>⑨∧
59
①③⑤口 |①-②-|
②④⑥⑧ |③-④-|
口口⑦5 |⑤-⑥-|
⑦⑧5口 |⑦-⑧-|
60
④口口① |①-②-|
①口口口 |③-④-|
②口口口 |⑤-⑥⑦|
口口⑤③ |⑧-⑨-|
⑨口口
⑨⑦⑧口
∧⑥口口
口口口口
61
口5口口 |①-②-|
5⑧⑦⑧ |③-④-|
口⑤③① |⑤-⑥-|
⑦⑥④② |⑦-⑧-|
62
①口④① |①-②-|
口口口口 |③-④-|
③口口口 |⑤-⑥⑦|
口⑤口② |⑧-⑨-|
口口口口
口口⑥口
口⑧⑦⑨
口>⑨∧
63
①③⑤口 |①-②-|
②④⑥⑧ |③-④-|
⑦口口5 |⑤-⑥-|
口⑦5⑧ |⑦-⑧-|
64
③④④② |①-②-|
①口口口 |③-④-|
口③②口 |⑤-⑥-|
①口口口 |⑦-⑧-|
口口口口
⑧⑤⑦⑧
口口口口
口⑥⑥口
65
②口口② |--①-|
口口口口 |②---|
②①①② |----|
①口口① |----|
66
口口口口 |----|
口口口口 |----|
口口口口 |----|
口口口口 |----|
67
口口口口 |----|
③口口④ |----|
口②口口 |--①②|
口①口口 |③-④-|
68
①②①② |①-②-|
口③③口 |--③-|
口口口口 |④--⑤|
口口口口 |--⑥-|
口口⑥口
口口口⑥
口⑤⑤口
④口口④
69
②①口⑥ |--①-|
③口口口 |--②-|
口④口① |--③④|
口⑤口② |⑤-⑥-|
70
③⑥口口 |①-②-|
⑥①③① |--③-|
②⑤⑤④ |④--⑤|
④口②口 |--⑥-|
71
口口①② |--①-|
⑥口口③ |--②-|
①口④口 |--③④|
②口⑤口 |⑤-⑥-|
72
④①①④ |①-②-|
口③③口 |③-④-|
口②口② |--⑤-|
口口口口 |⑥-⑦-|
口口⑦口
口口口⑦
⑥口⑥口
⑤口⑤口
73
②①口口 |--①-|
口口③口 |--②-|
⑤④⑤① |--③-|
③④④② |④-⑤-|
74
口①⑥① |①-②-|
③③口⑥ |--③-|
口⑤⑤② |④--⑤|
④口口④ |--⑥-|
75
②①⑥口 |--①-|
⑤口口口 |--②-|
口④口① |--③④|
口③口② |⑤-⑥-|
76
③⑥口口 |①-②-|
⑥①③① |--③-|
②⑤⑤② |④--⑤|
④口口④ |--⑥-|
77
口口①② |--①-|
口口口③ |--②-|
①⑥④口 |--③④|
②口⑤口 |⑤-⑥-|
78
①口⑥③ |①-②-|
③口②⑥ |--③-|
①⑤⑤② |④--⑤|
④口口④ |--⑥-|
79
③口⑦口 |①-②-|
⑥口①口 |--③-|
②⑤口② |--④⑤|
口④①③ |⑥-⑦-|
80
④①口④ |①-②-|
口③口① |③-④-|
②口口② |--⑤-|
口口③口 |⑥-⑦-|
口⑦口口
⑦口口口
口⑥⑥口
口⑤口⑤
81
口口①② |--①-|
口口口③ |--②-|
①口口④ |--③-|
②③④口 |--④-|
82
口口口口 |----|
口口口口 |----|
口口口口 |----|
口口口口 |----|
最終更新:2022年04月07日 14:19