アットウィキロゴ
Hades Doll
BEMANI Sound Team "Power Of Nature"

BASIC

Level: 4
BPM: 185
Notes: 335

1
口口口口 |----|
口口口口 |----|
口口口口 |----|
口口口口 |----|
2
口口口口 |①---|
口①口口 |----|
口口①口 |----|
口口口口 |----|
3
口口口口 |①---|
口口①口 |----|
口①口口 |----|
口口口口 |----|
4
口口口口 |①---|
①口口口 |----|
口口口① |----|
口口口口 |----|
5
①口口② |①---|
③口口④ |②---|
口口口口 |③---|
口口口口 |④---|
6
口口口口 |①---|
口口①口 |----|
口①口口 |----|
口口口口 |----|
7
口口口口 |①---|
口①口口 |----|
口口①口 |----|
口口口口 |----|
8
口口口口 |①---|
口口口① |----|
①口口口 |----|
口口口口 |----|
9
②口口① |①---|
④口口③ |②---|
口口口口 |③---|
口口口口 |④---|
10
口口口口 |①---|
口口口口 |----|
口②②口 |②---|
口①①口 |----|
11
口②②口 |①---|
口①①口 |----|
口口口口 |②---|
口口口口 |----|
12
①口口口 |①---|
口口②口 |②---|
③口口口 |③---|
口口口口 |----|
13
口口①口 |①---|
②口口口 |②---|
口口③口 |③---|
口口口口 |----|
14
口口口口 |①---|
口口口口 |----|
口口口口 |②---|
②①①② |----|
15
口口口口 |①---|
①②③④ |②---|
口口口口 |③---|
口口口口 |④---|
16
口口口① |①---|
口②口口 |②---|
口口口③ |③---|
口口口口 |----|
17
口①口口 |①---|
口口口② |②---|
口③口口 |③---|
口口口口 |----|
18
口口口口 |①---|
口口口口 |----|
口口口口 |②---|
②①①② |----|
19
口口口口 |①---|
③口口③ |②---|
口②①口 |③---|
口口口口 |----|
20
①口口口 |①---|
口④②口 |②---|
③口口口 |③---|
口口口口 |④---|
21
口口①口 |①---|
②④口口 |②---|
口口③口 |③---|
口口口口 |④---|
22
口口口口 |①---|
口口口口 |----|
口口口口 |②---|
②①①② |----|
23
口口口口 |①---|
①②③④ |②---|
口口口口 |③---|
口口口口 |④---|
24
口口口① |①---|
口②④口 |②---|
口口口③ |③---|
口口口口 |④---|
25
口①口口 |①---|
口口④② |②---|
口③口口 |③---|
口口口口 |④---|
26
口口口口 |①---|
口口口口 |----|
口口口口 |②---|
②①①② |----|
27
口口口口 |①---|
③口口③ |②---|
口②①口 |③---|
口口口口 |----|
28
口口口口 |①---|
口①口口 |----|
口口①口 |----|
口口口口 |----|
29
口口口口 |①---|
口口①口 |----|
口①口口 |----|
口口口口 |----|
30
口口口口 |①---|
口口口口 |②---|
④口口① |③---|
口③②口 |④---|
31
口②③口 |①---|
①口口④ |②---|
口口口口 |③---|
口口口口 |④---|
32
口口口口 |①---|
口②④口 |②---|
口③①口 |③---|
口口口口 |④---|
33
①①口② |①---|
口口口② |----|
口口口口 |②---|
口口口口 |----|
34
口口口口 |①---|
口④②口 |②---|
口①③口 |③---|
口口口口 |④---|
35
②口①① |①---|
②口口口 |----|
口口口口 |②---|
口口口口 |----|
36
口②①口 |①---|
口③④口 |②---|
口口口口 |③---|
口口口口 |④---|
37
口口口口 |①---|
口口口口 |②---|
口②①口 |③---|
口③④口 |④---|
38
②口口② |①---|
口口口口 |--②-|
①口口①
口口口口

口口口口
口口口口
③口口口 |----|
口口口口 |--③-|
39
口口口口 |--①-|
口①口③ |--②-|
口口②口 |--③-|
口口口口 |----|
40
口口口口 |①---|
口④②口 |②---|
口①③口 |③---|
口口口口 |④---|
41
②口①① |①---|
②口口口 |----|
口口口口 |②---|
口口口口 |----|
42
口口口口 |①---|
口②④口 |②---|
口③①口 |③---|
口口口口 |④---|
43
口①①口 |①---|
③口口③ |--②-|
口②②口 |----|
口口口口 |--③-|
44
口口口口 |----|
口口口口 |----|
②口口② |①---|
①口口① |--②-|
45
①口口① |----|
口口口口 |--①-|
口口口口 |----|
口口口口 |----|
46
口①①口 |①---|
口②②口 |②---|
口③③口 |③---|
口④④口 |④---|
47
口口口口 |----|
口口口口 |----|
口口口口 |----|
口口口口 |----|
48
口②口口 |①---|
口口口口 |----|
①①③③ |②---|
口口口口 |③---|
49
口口①口 |----|
口口口口 |①---|
口②口口 |②---|
口②口口 |----|
50
①口口③ |①---|
口口口口 |②---|
口口②口 |----|
口口②口 |③---|
51
口②口口 |①---|
口口口口 |----|
①①③③ |②---|
口口口口 |③---|
52
口口①口 |----|
口口口口 |①---|
口②口口 |②---|
口②口口 |----|
53
①口口口 |①---|
口口口口 |②---|
口口②口 |----|
口口②口 |----|
54
口口口口 |①---|
口①②口 |②---|
口④③口 |③---|
口口口口 |④---|
55
口口口口 |①---|
口①②③ |②---|
口口口④ |③---|
口口口口 |④---|
56
口口口口 |①---|
②口口③ |②---|
①口口④ |③---|
口口口口 |④---|
57
口口口口 |①---|
口②①口 |②---|
口③④口 |③---|
口口口口 |④---|
58
口口口口 |①---|
③②①口 |②---|
④口口口 |③---|
口口口口 |④---|
59
口口口口 |①---|
③口口② |②---|
④口口① |③---|
口口口口 |④---|
60
口①口口 |----|
口口①口 |----|
口口口口 |①---|
口口口口 |----|
61
口口②口 |①---|
口②口口 |----|
口口口口 |②---|
口①①口 |----|
62
②口口口 |①---|
口口口② |----|
口口口口 |②---|
口①①口 |----|
63
口口口口 |①---|
口口口口 |----|
①口口② |②---|
②口口① |----|
64
②③口① |①---|
①口口口 |----|
口口口口 |②---|
口口口口 |③---|
65
口口③② |①---|
口①①口 |----|
口口口口 |②---|
口口口口 |③---|
66
口口口口 |①---|
口①①口 |----|
口口口口 |②---|
口②③口 |③---|
67
口口口口 |①---|
口口口口 |②---|
③①②口 |③---|
口③口口 |----|
68
口口②口 |①---|
口口口② |----|
口口口① |②---|
口口①口 |----|
69
口①口② |①---|
①③口口 |----|
口口口口 |②---|
口口口口 |③---|
70
口③口口 |①---|
口口②④ |②---|
口口口① |③---|
口口口口 |④---|
71
口口口口 |①---|
口口②口 |②---|
口①口口 |③---|
口③③口 |----|
72
口口口口 |①---|
口口③② |----|
口口口口 |②---|
①口口① |③---|
73
③口④口 |①---|
②①口口 |②---|
口口口口 |③---|
口口口口 |④---|
74
口口口口 |①---|
口①①② |②---|
③口④口 |③---|
口口口口 |④---|
75
口④口口 |①---|
口口口口 |②---|
③③口口 |③---|
口①①② |④---|
76
口口②③ |①---|
口口④口 |②---|
口口①① |③---|
口口口口 |④---|
77
③口口口 |①---|
口④口口 |②---|
口①口口 |③---|
②口口口 |④---|
78
口口口口 |①---|
口口口口 |②---|
口④①④ |③---|
口口③② |④---|
79
③②③② |①---|
口④①④ |②---|
口口口口 |③---|
口口口口 |④---|
80
④口口④ |①---|
口口③口 |②---|
①③①口 |③---|
口②口② |--④-|
81
口②②口 |--①-|
③①口④ |--②-|
③口①④ |--③-|
口口口口 |--④-|
82
③口②口 |--①-|
③②口口 |--②-|
口口①④ |--③-|
口①口④ |--④-|
83
口③④② |--①-|
口口口② |--②-|
①口口口 |--③-|
①④③口 |--④-|
84
①口口口 |--①-|
口②②口 |--②-|
口②②口 |----|
口口口① |----|

accuracy: 100%
最終更新:2022年04月13日 11:30