アットウィキロゴ
Hades Doll
BEMANI Sound Team "Power Of Nature"

ADVANCED

Level: 8
BPM: 185
Notes: 590

1
口口口口 |----|
口口口口 |----|
口口口口 |----|
口口口口 |----|
2
口口口口 |①---|
②④③⑤ |②-③-|
口⑥口⑦ |④-⑤-|
口①①口 |⑥-⑦-|
3
口口口口 |①---|
口④口⑤ |②-③-|
②⑥③⑦ |④-⑤-|
口①①口 |⑥-⑦-|
4
口口口口 |①---|
②④③⑤ |②-③-|
口⑥口⑦ |④-⑤-|
口①①口 |⑥-⑦-|
5
口②④口 |①---|
口口口口 |②---|
口口口口 |③---|
①①③③ |④---|
6
口口口口 |①---|
口③口② |②-③-|
①口口①
口口口口

口口口口
⑤口④口
⑦口⑥口 |④-⑤-|
口口口口 |⑥-⑦-|
7
口口口口 |①---|
⑤口④口 |②-③-|
⑦③⑥② |④-⑤-|
口①①口 |⑥-⑦-|
8
口口口口 |①---|
⑤③④② |②-③-|
⑦口⑥口 |④-⑤-|
口①①口 |⑥-⑦-|
9
口④②口 |①---|
口口口口 |②---|
口口口口 |③---|
③③①① |④---|
10
口口③① |①---|
口口口口 |②---|
口口口口 |③---|
口口②④ |④---|
11
③①口口 |①---|
口口口口 |②---|
口口口口 |③---|
②④口口 |④---|
12
口口口口 |①-②-|
口②①口 |③-④-|
口④③口 |⑤---|
口口⑤口 |----|
13
口口口口 |①-②-|
①口口② |③-④-|
③口口④ |⑤---|
⑤口口口 |----|
14
口口口口 |①-②-|
⑥口⑤口 |③-④-|
口④③口 |⑤---|
口②①口 |⑥---|
15
③①①③ |①---|
口口口口 |②---|
④②②④ |③---|
口口口口 |④---|
16
口口口口 |①-②-|
口①②口 |③-④-|
口③④口 |⑤---|
口⑤口口 |----|
17
口口口口 |①-②-|
②口口① |③-④-|
④口口③ |⑤---|
口口口⑤ |----|
18
口口口口 |①-②-|
口⑤口⑥ |③-④-|
口③④口 |⑤---|
口①②口 |⑥---|
19
口口口口 |①---|
①口①口 |②---|
口②口② |③---|
③口③口 |----|
20
口⑤④口 |①-②-|
口③⑥口 |③-④-|
口⑦②口 |⑤-⑥-|
口①⑧口 |⑦-⑧-|
21
⑤口口④ |①-②-|
③口口⑥ |③-④-|
⑦口口② |⑤-⑥-|
①口口⑧ |⑦-⑧-|
22
口口口口 |①-②-|
口⑤口⑥ |③-④-|
口③④口 |⑤---|
口①②口 |⑥---|
23
③①①③ |①---|
口口口口 |②---|
④②②④ |③---|
口口口口 |④---|
24
口④⑤口 |①-②-|
口⑥③口 |③-④-|
口②⑦口 |⑤-⑥-|
口⑧①口 |⑦-⑧-|
25
④口口⑤ |①-②-|
⑥口口③ |③-④-|
②口口⑦ |⑤-⑥-|
⑧口口① |⑦-⑧-|
26
口口口口 |①-②-|
⑥口⑤口 |③-④-|
口④③口 |⑤---|
口②①口 |⑥---|
27
口①①口 |①---|
口口口口 |②---|
口③②口 |③---|
口③②口 |----|
28
口①③口 |①---|
①口口③ |②---|
口口口口 |③---|
②④②④ |④---|
29
①口口③ |①---|
口①③口 |②---|
口口口口 |③---|
②④②④ |④---|
30
③①②④ |①---|
①③④② |②---|
口口口口 |③---|
口口口口 |④---|
31
③①②④ |①---|
口口口口 |②---|
④②①③ |③---|
口口口口 |④---|
32
③③口口 |①---|
口④④口 |②---|
口②②口 |③---|
①①口口 |④---|
33
口②口① |①---|
②口口① |----|
口口口口 |②---|
口口口口 |----|
34
口口③③ |①---|
口④④口 |②---|
口②②口 |③---|
口口①① |④---|
35
①口②口 |①---|
①口口② |----|
口口口口 |②---|
口口口口 |----|
36
口③③口 |①---|
口④④口 |②---|
口②②口 |③---|
口①①口 |④---|
37
口③③口 |①-②-|
②④④① |--③-|
口⑤⑤口 |--④-|
口口口口 |--⑤-|
38
③口口④ |--①-|
口口④② |②-③-|
①口口口 |--④-|
口⑤口⑤ |--⑤-|
39
③口③口 |--①-|
口②口② |--②-|
①口①口 |--③-|
口口口口 |----|
40
口口③③ |①---|
口④④口 |②---|
口②②口 |③---|
口口①① |④---|
41
①口②口 |①---|
①口口② |----|
口口口口 |②---|
口口口口 |----|
42
③③口口 |①---|
口④④口 |②---|
口②②口 |③---|
①①口口 |④---|
43
⑤③③⑤ |①-②-|
②口口① |--③-|
口④④口 |--④-|
口口口口 |--⑤-|
44
口口口口 |----|
口口口口 |----|
口①②口 |①-②-|
口③④口 |③-④-|
45
③①②④ |--①-|
①③④② |--②-|
口口口口 |--③-|
口口口口 |--④-|
46
口①①口 |----|
②口口③ |①---|
②④⑤③ |②-③-|
口④⑤口 |④-⑤-|
47
口口口口 |----|
口口口口 |----|
口口口口 |----|
口口口口 |----|
48
口口口口 |①---|
④口①① |②-③-|
②口③口 |④---|
⑤⑤口口 |⑤---|
49
口口口口 |①-②-|
口口口③ |③---|
⑤②⑥① |④---|
口口④④ |⑤-⑥-|
50
口口②② |①---|
①⑤口口 |②---|
口③口④ |③-④-|
口口口口 |⑤---|
51
口口口口 |①---|
④口①① |②-③-|
②口③口 |④---|
⑤⑤口口 |⑤---|
52
口口口口 |①-②-|
口口口③ |③---|
⑤②⑥① |④---|
口口④④ |⑤-⑥-|
53
口②③口 |①---|
①③②口 |②---|
口口口口 |③---|
口口口口 |----|
54
口口口口 |①---|
③③④④ |②---|
②②①① |③---|
口口口口 |④---|
55
③③④④ |①---|
口口口口 |②---|
②②①① |③---|
口口口口 |④---|
56
③③④④ |①---|
口口口口 |②---|
口口口口 |③---|
②②①① |④---|
57
口口口口 |①---|
④④③③ |②---|
①①②② |③---|
口口口口 |④---|
58
④④③③ |①---|
口口口口 |②---|
①①②② |③---|
口口口口 |④---|
59
④④③③ |①---|
口口口口 |②---|
口口口口 |③---|
①①②② |④---|
60
②口口① |----|
②口口① |----|
口口③口 |①--②|
口口口口 |--③-|
61
口口口口 |①---|
③口口② |----|
③口④② |②--③|
口①口口 |--④-|
62
口口④口 |①---|
口口④口 |----|
③口口② |②--③|
③①口② |--④-|
63
①口口② |①--②|
①口口② |--③-|
口③④口 |④---|
⑤③④⑤ |⑤---|
64
③①①④ |①---|
③口口④ |②---|
②⑤口② |③--④|
口口口口 |--⑤-|
65
口口口口 |①---|
②口口③ |----|
②④口③ |②--③|
口口①口 |--④-|
66
口④口口 |①---|
口④口口 |----|
②口口③ |②--③|
②口①③ |--④-|
67
②口口① |①--②|
②⑥口① |--③-|
口⑤③口 |④---⑤-|
④口③口 |--⑥---|
68
口⑥口① |①---②-|
⑤口②口 |--③---|
④口③口 |④---⑤-|
口口口口 |--⑥---|
69
口口①口 |①---②-|
口口口② |--③---|
口口口③
口口口口

口口⑦口
口⑥口口
口口⑤口 |④-⑤-|
口④口口 |⑥-⑦-|
70
口①口⑧ |①-②-|
⑦口②口 |③-④-|
口③口⑥ |⑤-⑥-|
⑤口④口 |⑦-⑧-|
71
①口口口 |①-②-|
口口口② |③-④-|
③⑦⑧口 |⑤-⑥-|
口⑤⑥④ |⑦-⑧-|
72
口③③口 |①---|
口①口② |②---|
口④④口 |③---|
口口口口 |④---|
73
①口口① |①---|
③④⑤口 |②---|
②口⑥② |③-④-|
口口口口 |⑤-⑥-|
74
口口口口 |①---|
口④③② |----|
口⑤口口 |②-③-|
口口①① |④-⑤-|
75
口口口口 |①---|
口口⑤口 |----|
口口④口 |②-③-|
①①③② |④-⑤-|
76
⑤⑥⑦⑧ |①-②-|
口④口口 |③-④-|
口③口口 |⑤-⑥-|
①②口口 |⑦-⑧-|
77
口口口口 |①-②-|
⑧口口① |③-④-|
⑦口口② |⑤-⑥-|
⑥⑤④③ |⑦-⑧-|
78
①②③④ |①-②-|
口⑤口⑥ |③-④-|
口⑦口⑧ |⑤-⑥-⑦-|
口⑨口⑩ |⑧-⑨-⑩-|
79
口⑦口⑦ |①-②-③-|
⑤⑦⑥口 |④-⑤-⑥-|
③口④⑧ |⑦---|
①⑧②⑧ |⑧---|
80
②④②口 |①---|
口④②口 |②---|
①③③口 |③---|
①口①口 |--④-|
81
口口④② |--①-|
口口④② |--②-|
口口口② |--③-|
③①①③ |--④-|
82
②口口④ |--①-|
②③口④ |--②-|
②口③④ |--③-|
口①①口 |--④-|
83
②③③口 |--①-|
②口①口 |--②-|
②①口口 |--③-|
口④④口 |--④-|
84
口口口① |--①-|
②①口口 |--②-|
口口②① |----|
②口口口 |----|

accuracy: 100%
最終更新:2022年04月13日 12:59