アットウィキロゴ
Hades Doll
BEMANI Sound Team "Power Of Nature"

EXTREME

Level: 10.6
BPM: 185
Notes: 909

1
口口口口 |----|
口口口口 |----|
口口口口 |----|
口口口口 |----|
2
⑥②口⑨ |①---|
⑤④③⑦ |②③④⑤|
⑧口口口 |⑥-⑦-|
口口①① |⑧-⑨-|
3
⑦⑤口口 |①---|
口⑥④⑧ |②③④⑤|
⑨③口口 |⑥-⑦-|
②口①① |⑧-⑨-|
4
⑥②口⑨ |①---|
⑤口③⑦ |②③④⑤|
⑧④口口 |⑥-⑦-|
口口①① |⑧-⑨-|
5
口口②⑧ |①-②-|
⑤⑤④⑥ |③-④-|
⑦⑦口口 |⑤-⑥-|
口③①① |⑦-⑧-|
6
⑥②口⑨ |①---|
⑤④③⑦ |②③④⑤|
⑧口①① |⑥-⑦-|
口口①① |⑧-⑨-|
7
⑦⑤口口 |①---|
口⑥④⑧ |②③④⑤|
⑨③①① |⑥-⑦-|
②口①① |⑧-⑨-|
8
⑥②口⑨ |①---|
⑤口③⑦ |②③④⑤|
⑧④①① |⑥-⑦-|
口口①① |⑧-⑨-|
9
口口②⑧ |①-②-|
⑤⑤④⑥ |③-④-|
⑦⑦①① |⑤-⑥-|
口③①① |⑦-⑧-|
10
口③③口 |①---|
口口口口 |②---|
口口①① |③---|
④②②④ |④---|
11
⑨⑤口① |①-②-|
⑩⑥②口 |③-④-|
⑪⑦口③ |⑤⑥⑦⑧|
⑫⑧④口 |⑨⑩⑪⑫|
12
口口③口 |①-②-|
口④口② |③-④-|
口⑦⑥⑧ |⑤-⑥-|
口⑤口① |⑦-⑧-|
13
口③口口 |①-②-|
②口④口 |③-④-|
⑧⑥⑦口 |⑤-⑥-|
①口⑤口 |⑦-⑧-|
14
⑤⑦③口 |①-②-|
⑥④⑧② |③-④-|
口口口口 |⑤-⑥-|
口口口① |⑦-⑧-|
15
⑤口口② |①-②③|
⑥⑦口③ |④-⑤⑥|
⑦①①④ |⑦---|
口口⑧口 |⑧---|
16
口口③口 |①-②-|
口④口② |③-④-|
口⑦⑥⑧ |⑤-⑥-|
口⑤口① |⑦-⑧-|
17
口③口口 |①-②-|
②口④口 |③-④-|
⑧⑥⑦口 |⑤-⑥-|
①口⑤口 |⑦-⑧-|
18
⑤⑦③口 |①-②-|
⑥④⑧② |③-④-|
口口口口 |⑤-⑥-|
口口口① |⑦-⑧-|
19
⑧口⑦⑧ |①②③④|
口⑦口口 |⑤-⑥-|
⑤①②⑥ |⑦---|
口③④口 |⑧---|
20
⑦②⑤⑥ |①-②-|
①④③口 |③-④-|
口②⑤⑧ |⑤-⑥-|
①④③口 |⑦-⑧-|
21
口①⑤⑦ |①-②-|
②④③⑥ |③-④-|
口①⑤⑧ |⑤-⑥-|
②④③口 |⑦-⑧-|
22
①③④口 |①-②-|
口口②口 |③-④-|
③①口口
口口口口

口口口口
口⑤口口
口⑧⑦口 |⑤-⑥-|
⑤⑥口口 |⑦-⑧-|
23
②口⑦⑤ |①-②③|
③口①⑥ |④-⑤⑥|
④口口⑦ |⑦---|
口口口⑧ |⑧---|
24
⑦②⑤⑥ |①-②-|
①④③口 |③-④-|
口②⑤⑧ |⑤-⑥-|
①④③口 |⑦-⑧-|
25
口①⑤⑦ |①-②-|
②④③⑥ |③-④-|
口口⑤⑧ |⑤-⑥-|
②④③口 |⑦-⑧-|
26
④⑧⑦口 |①-②-|
③⑦⑧口 |③-④-|
②⑥口口 |⑤-⑥-|
①⑤⑤① |⑦-⑧-|
27
⑥口口⑤ |①②③④|
⑥⑨⑩⑤ |⑤-⑥-|
②口⑧① |⑦-⑧-|
④⑦⑦③ |⑨-⑩-|
28
②①①口 |①---|
③⑨口⑥ |②③④⑤|
①④⑤① |⑥-⑦-|
口⑧口⑦ |⑧-⑨-|
29
②⑦④⑥ |①-②-|
口口口口 |③-④-|
①口口⑤ |⑤-⑥-|
①⑧③⑤ |⑦-⑧-|
30
口口口口 |①-②-|
口⑥③口 |③④⑤⑥|
①⑤④口
①口②口

口⑨⑦⑦
口口口口
⑩口口⑧ |⑦-⑧-|
口口口口 |⑨-⑩-|
31
⑨⑨⑩⑩ |①-②-|
④⑤⑧② |③-④-|
口⑥⑦口 |⑤⑥⑦⑧|
口③①① |⑨-⑩-|
32
口口口口 |①-②③|
⑤口口③ |-④⑤-|
①口口①
口④②口

口口⑨口
口⑨⑧口
⑨⑧⑦口 |⑥-⑦-|
口口口⑥ |⑧-⑨-|
33
⑥口⑦① |①-②③|
⑤⑦口③ |-④⑤-|
口口口口 |⑥---|
⑥④②口 |⑦---|
34
口口口口 |①-②③|
④口口② |-④⑤-|
①口口①
口⑤③口

口⑨口口
口⑧⑨口
口⑦⑧⑨ |⑥-⑦-|
⑥口口口 |⑧-⑨-|
35
①⑦口⑥ |①-②③|
②口⑦④ |-④⑤-|
口口口口 |⑥---|
口③⑤⑥ |⑦---|
36
⑧口口⑥ |①-②③|
④口口② |-④⑤-|
①③⑤① |⑥-⑦-|
口⑨⑦口 |⑧-⑨-|
37
④②①③ |①-②-|
口①②⑤ |--③-|
①口⑤② |--④-|
④⑤口③ |--⑤-|
38
④③②④ |--①-|
口②③口 |②-③-|
①口口① |--④-|
⑥⑥⑥⑤ |⑤-⑥-|
39
⑤⑥⑥⑥ |①-②-|
④④④③ |③-④-|
①②②② |⑤-⑥-|
口口口口 |----|
40
口口口口 |①-②③|
③口口⑤ |-④⑤-|
①口口①
口②④口

口⑨口口
口⑧⑨口
口⑦⑧⑨ |⑥-⑦-|
⑥口口口 |⑧-⑨-|
41
①⑦口⑥ |①-②③|
③口⑦⑤ |-④⑤-|
口口口口 |⑥---|
口②④⑥ |⑦---|
42
⑥口口⑨ |①-②③|
②⑦⑧④ |-④⑤-|
①⑧口① |⑥-⑦-|
⑨③⑤口 |⑧-⑨-|
43
③③①口 |①-②-|
③口口② |--③-|
①口口口
口②口口

口口⑤口
口口口口
⑤口⑤④ |--④-|
口口④④ |--⑤-|
44
口口⑦② |①---|
⑤①①口 |②-③-|
口口口④ |④-⑤-|
③⑥口口 |⑥-⑦-|
45
④口口④ |--①-|
③②③① |--②-|
①④口② |--③-|
②口①③ |--④-|
46
口①①口 |①-②③|
口口口口 |-④⑤-|
②口口④
口③⑤口

口⑨⑨口
⑦⑧⑦⑧
口⑨⑨口 |⑥-⑦-|
⑥口口⑥ |⑧-⑨-|
47
②口口④ |①-②-|
⑤⑥⑦⑧ |③-④-|
⑫⑪⑩⑨ |⑤⑥⑦⑧|
口①③口 |⑨⑩⑪⑫|
48
口①①口 |①---|
④口口口 |②-③-|
口⑤⑤口 |④---|
③口②口 |⑤---|
49
口口口口 |①-②-|
口③口④ |③---|
⑤口⑥④ |④---|
口②口① |⑤-⑥-|
50
②口①⑤ |①---|
②口口口 |②---|
口③口④ |③-④-|
口口口口 |⑤---|
51
口①①口 |①---|
④口口口 |②-③-|
口⑤⑤口 |④---|
③口②口 |⑤---|
52
口口口口 |①-②-|
口③口④ |③---|
⑤口⑥④ |④---|
口②口① |⑤-⑥-|
53
口口①⑦ |①---|
②④②⑥ |②-③-|
口③口⑤ |④-⑤-|
④②④口 |⑥-⑦-|
54
①①口口 |①---|
口③口口 |②---|
②口②④ |③---|
口③口④ |④---|
55
口②④口 |①---|
①口①口 |②---|
口②④口 |③---|
③③口口 |④---|
56
②口口口 |①---|
②①③① |②---|
口④口④ |③---|
口口③口 |④---|
57
③⑮②⑭ |①②③④|
⑤⑪⑧⑩ |⑤⑥⑦⑧|
①⑬④⑯ |⑨⑩⑪⑫|
⑦⑨⑥⑫ |⑬⑭⑮⑯|
58
③⑮②⑭ |①②③④|
⑤⑪⑧⑩ |⑤⑥⑦⑧|
①⑬④⑯ |⑨⑩⑪⑫|
⑦⑨⑥⑫ |⑬⑭⑮⑯|
59
③⑮②⑭ |①②③④|
⑤⑪⑧⑩ |⑤⑥⑦⑧|
①⑬④⑯ |⑨⑩⑪⑫|
⑦⑨⑥⑫ |⑬⑭⑮⑯|
60
口③口② |----|
①①④口 |----|
口口口口 |①--②|
①①口口 |--③④|
61
口口口③ |①---|
口④口② |----|
口①⑤口 |②--③|
口口②② |--④⑤|
62
②②口口 |①---|
口口④口 |----|
②口口口 |②--③|
③①口口 |--④-|
63
④⑤①① |①--②|
④②口口 |--③-|
⑤④口① |④---|
⑤口口③ |⑤---|
64
④⑤②① |①---|
③⑥④① |②---|
口口①② |③--④|
口③口② |--⑤⑥|
65
口口④④ |①--②|
口口口口 |③-④-|
口①口口
③口口②

口口口口
口口口⑤
⑦⑧口⑥ |⑤--⑥|
口⑥⑤口 |--⑦⑧|
66
④④口⑦ |①--②|
口口口⑥ |③-④-|
口⑦①⑤ |⑤--⑥|
②⑥⑤③ |--⑦-|
67
口口①口 |①--②|
②①口口 |--③-|
③口②口
口口③口

⑥口口⑦
口⑨口口
口⑧口口 |④-⑤-⑥-|
⑤口口④ |⑦-⑧-⑨-|
68
⑨④⑤⑧ |①-②-③-|
口口①⑫ |④-⑤-⑥-|
口口②⑪ |⑦-⑧-⑨-|
⑩③⑥⑦ |⑩-⑪-⑫-|
69
⑨⑥⑤⑧ |①-②-③-|
①⑨⑧⑩ |④-⑤-⑥-|
②口⑦⑩ |⑦-⑧-|
口③④⑦ |⑨-⑩-|
70
⑥③④⑦ |①-②-|
②⑥⑦口 |③-④-|
①⑤⑧口 |⑤-⑥-|
⑤①口⑧ |⑦-⑧-|
71
口④③口 |①-②-|
⑤⑤⑥② |③-④-|
⑦⑦⑧① |⑤-⑥-|
口口①口 |⑦-⑧-|
72
⑥⑨口⑤ |①-②-|
⑦⑩口③ |③-④-|
⑧口口③ |⑤-⑥⑦|
①①②④ |⑧-⑨⑩|
73
口口②⑤ |①-②③|
口口③⑥ |④-⑤⑥|
口①④口
口口口口

⑧⑨口口
⑩⑪口口
⑫⑬口⑦ |⑦-⑧⑨|
口口口口 |⑩⑪⑫⑬|
74
口口③④ |①--②|
⑥⑦①口 |③-④-|
⑧⑨口⑤ |⑤-⑥⑦|
⑩⑪②⑤ |⑧⑨⑩⑪|
75
口口③④ |①--②|
⑥⑦口口 |③-④-|
⑧⑨①⑤ |⑤-⑥⑦|
⑩⑪②⑤ |⑧⑨⑩⑪|
76
⑨⑪②③ |①-②③|
口口④⑤ |④⑤⑥⑦|
口口⑥⑦ |⑧-⑨-|
⑩口①⑧ |⑩-⑪-|
77
⑥⑧②④ |①-②-|
口口口口 |③-④-|
口口口口 |⑤-⑥-|
⑦①③⑤ |⑦-⑧-|
78
口口②④ |①-②-|
⑥口口⑦ |③-④-|
⑤⑩⑨⑧ |⑤-⑥-⑦-|
口①③口 |⑧-⑨-⑩-|
79
⑪⑤⑥⑦ |①-②-③-|
⑫①②⑧ |④-⑤-⑥-|
⑬口口⑨ |⑦⑧⑨⑩|
⑭④③⑩ |⑪⑫⑬⑭|
80
⑫④⑤⑩ |①②③④|
⑪⑥③⑨ |⑤⑥⑦⑧|
⑫②⑦⑩ |⑨-⑩-|
⑪⑧①⑨ |⑪-⑫-|
81
⑦①④⑤ |①-②-|
口③①④ |③-④-|
⑦②④⑤ |--⑤-|
⑥③②⑥ |⑥-⑦-|
82
⑥①③⑤ |①-②-|
④③①⑦ |--③-|
⑦②③④ |④-⑤-|
⑤口②⑥ |⑥-⑦-|
83
⑤①④⑥ |①-②-|
口③②口 |③-④-|
口②③口 |--⑤-|
⑤④①⑥ |--⑥-|
84
口①口口 |--①-|
口②②① |--②-|
①②②口 |----|
口口①口 |----|

accuracy: 100%
最終更新:2022年04月13日 16:40