アットウィキロゴ
Lava Flow
BEMANI Sound Team "S-C-U & SYUNN"

BASIC

Level: 3
BPM : 190
Notes: 196

1
口口口口 |----|
口口口口 |----|
口口口口 |----|
口口口口 |----|
2
口口口口 |①---|
口口口口 |----|
口口口口 |----|
口①①口 |----|
3
口口口口 |----|
口口口口 |----|
口口口口 |----|
口口口口 |----|
4
口口口口 |①---|
口口口口 |----|
口①①口 |----|
口口口口 |----|
5
口口口口 |①---|
口①①口 |----|
口口口口 |----|
口口口口 |----|
6
口口口① |①---|
口口②口 |----|
口口口口 |②---|
口口口口 |----|
7
口①口口 |①---|
②口口口 |----|
口口口口 |②---|
口口口口 |----|
8
①口口口 |①---|
口②口口 |----|
口口口口 |②---|
口口口口 |----|
9
口口①口 |①---|
口口口② |----|
口口口口 |②---|
口口口口 |----|
10
口①口① |①---|
口口口口 |----|
口口口口 |----|
口口口口 |----|
11
①口①口 |①---|
②口②口 |----|
口口口口 |②---|
口口口口 |----|
12
口口口口 |①---|
口口口口 |----|
口②①口 |②---|
口口口口 |----|
13
口口口口 |①---|
口口口口 |----|
口口口口 |②---|
口②①口 |----|
14
口口口口 |①---|
口口口口 |----|
口口口口 |②---|
②口口① |----|
15
口口口口 |①---|
口口口口 |----|
②口口① |②---|
口口口口 |----|
16
口口口口 |①---|
口口口口 |----|
口②①口 |②---|
口口口口 |----|
17
口口口口 |①---|
口口口口 |----|
口口口口 |②---|
口②①口 |----|
18
口口口口 |①---|
口口口口 |----|
口口口口 |②---|
②口口① |----|
19
口口口口 |①---|
口口口口 |----|
口②①口 |②---|
口口口口 |----|
20
口口口口 |①---|
②口口① |----|
口口口口 |②---|
口口口口 |----|
21
口②①口 |①---|
口口口口 |----|
口口口口 |②---|
口口口口 |----|
22
②口口① |①---|
口口口口 |----|
口口口口 |②---|
口口口口 |----|
23
口口口口 |①---|
口②①口 |----|
口口口口 |②---|
口口口口 |----|
24
口口口口 |①---|
口口口口 |----|
②口口① |②---|
口口口口 |----|
25
口口口口 |①---|
口口口口 |----|
口口口口 |②---|
口②①口 |----|
26
口口口口 |①---|
口①①口 |----|
口口口口 |----|
口口口口 |----|
27
口口口口 |----|
口口口口 |----|
口口口口 |----|
口口口口 |----|
28
口口口口 |①---|
口②口② |----|
口口口口 |----|
口①口① |②---|
29
②口②口 |----|
①口①口 |①---|
口口口口 |----|
口口口口 |②---|
30
口口口口 |----|
①口①口 |----|
口口口口 |----|
口口口口 |①---|
31
口口口口 |----|
口①口① |①---|
口口口口 |----|
口口口口 |----|
32
口口口口 |----|
②①②① |①---|
口口口口 |----|
口口口口 |②---|
33
口口口口 |----|
口口口口 |----|
口口口口 |----|
口口口口 |----|
34
口①口① |----|
口②口② |①---|
口口口口 |----|
口口口口 |②---|
35
②口②口 |----|
①口①口 |①---|
口口口口 |----|
口口口口 |②---|
36
口①口① |----|
口②口② |①---|
口口口口 |----|
口口口口 |②---|
37
②口②口 |----|
①口①口 |①---|
口口口口 |----|
口口口口 |②---|
38
口①口口 |①---|
口②口口 |----|
口口口口 |②---|
口口口口 |----|
39
口口口口 |①---|
口口口口 |----|
口①口口 |②---|
口②口口 |----|
40
口口口口 |①---|
口口口口 |----|
口口②口 |②---|
口口①口 |----|
41
口口②口 |①---|
口口①口 |----|
口口口口 |②---|
口口口口 |----|
42
口①口① |①---|
口口口口 |----|
口口口口 |----|
口口口口 |----|
43
①口①口 |①---|
口口口口 |----|
口口口口 |----|
口口口口 |----|
44
口口口口 |----|
口口口口 |①---|
口口口① |②---|
口口③② |③---|
45
口口口口 |----|
口口口口 |①---|
③口口口 |②---|
②①口口 |③---|
46
②③口口 |----|
①口口口 |①---|
口口口口 |②---|
口口口口 |③---|
47
口口①② |----|
口口口③ |①---|
口口口口 |②---|
口口口口 |③---|
48
口口口口 |----|
口口口口 |①---|
口口口① |②---|
口口③② |③---|
49
口口口口 |----|
口口口口 |①---|
③口口口 |②---|
②①口口 |③---|
50
②③口口 |----|
①口口口 |①---|
口口口口 |②---|
口口口口 |③---|
51
口口①② |----|
口口口③ |①---|
口口口口 |②---|
口口口口 |③---|
52
口口口口 |----|
口口口口 |①---|
口口口① |②---|
口口③② |③---|
53
口口口口 |----|
口口口口 |①---|
③口口口 |②---|
②①口口 |③---|
54
②③口口 |----|
①口口口 |①---|
口口口口 |②---|
口口口口 |③---|
55
口口①② |----|
口口口③ |①---|
口口口口 |②---|
口口口口 |③---|
56
口口口口 |----|
口口口口 |①---|
口口口① |②---|
口口③② |③---|
57
口口口口 |----|
口口口口 |①---|
③口口口 |②---|
②①口口 |③---|
58
②③④口 |①---|
①口口口 |②---|
口口口口 |③---|
口口口口 |④---|
59
口口口① |①---|
口口③② |②---|
口口口口 |③---|
口口口口 |----|
60
口口口口 |①---|
口口口口 |②---|
口口口① |③---|
口④③② |④---|
61
口口口口 |①---|
口口口口 |②---|
②③口口 |③---|
①口口口 |----|
62
②③④口 |①---|
①口口口 |②---|
口口口口 |③---|
口口口口 |④---|
63
口口口① |①---|
口口③② |②---|
口口口口 |③---|
口口口口 |----|
64
口口口口 |①---|
口口口口 |②---|
口口口① |③---|
口④③② |④---|
65
口口口口 |①---|
口口口口 |②---|
②③口口 |③---|
①口口口 |----|
66
②③④口 |①---|
①口口口 |②---|
口口口口 |③---|
口口口口 |④---|
67
口口口① |①---|
口口③② |②---|
口口口口 |③---|
口口口口 |----|
68
口口口口 |①---|
口口口口 |②---|
口口口① |③---|
口④③② |④---|
69
口口口口 |①---|
口口口口 |②---|
②③口口 |③---|
①口口口 |----|
70
②③④口 |①---|
①口口口 |②---|
口口口口 |③---|
口口口口 |④---|
71
口口口① |①---|
口口口② |②---|
口口口③ |③---|
口口口④ |④---|
72
口口口口 |①---|
口口口口 |②---|
④口口口 |③---|
③②①口 |④---|
73
②③④口 |①---|
①口口口 |②---|
口口口口 |③---|
口口口口 |④---|
74
口口口口 |①---|
口口口口 |----|
口①①口 |----|
口口口口 |----|

accuracy: 100%
最終更新:2022年04月21日 17:29