アットウィキロゴ
Lava Flow
BEMANI Sound Team "S-C-U & SYUNN"

ADVANCED

Level: 7
BPM : 190
Notes: 375

1
口口口口 |----|
口口口口 |----|
口口口口 |----|
口口口口 |----|
2
口口口① |①---|
口口口口 |----|
口口口口 |----|
①口口口 |----|
3
口口口口 |----|
口口口口 |----|
口口口口 |----|
口口口口 |----|
4
口口①口 |①---|
口口口口 |----|
口口口口 |----|
口①口口 |----|
5
口①口口 |①---|
口口口口 |----|
口口口口 |----|
口口①口 |----|
6
①口口口 |①---|
口口口口 |②---|
④口②口 |③---|
口③口① |④---|
7
口口口① |①---|
口口口口 |②---|
口②口④ |③---|
①口③口 |④---|
8
①⑤④③ |①---|
口②口口 |②-③-|
口口②口 |--④-|
③④⑤① |--⑤-|
9
口口口口 |----|
口①①口 |①---|
②口口② |②---|
口③③口 |③---|
10
①口口① |①---|
口②②口 |②---|
口口口口 |----|
口口口口 |----|
11
口口口口 |①---|
①口口① |----|
口③②口 |②---|
口②③口 |③---|
12
口①口口 |①---|
口口口口 |--②-|
②口口口 |----|
口口③口 |③---|
13
口口口口 |--①-|
口口③① |----|
口②口口 |②---|
口口口口 |③---|
14
口①口口 |①---|
口口口口 |--②-|
②口口口 |----|
口口③口 |③---|
15
口口口口 |--①-|
口口③① |----|
口②口口 |②---|
口口口口 |③---|
16
口①口口 |①---|
口口口口 |--②-|
②口口口 |----|
口口③口 |③---|
17
口口口口 |--①-|
口口②① |----|
口③口口 |②---|
口口口口 |③---|
18
①①口口 |①---|
口口口口 |----|
②口口口 |②---|
口③口口 |③---|
19
口口③口 |①---|
口口口② |----|
口口口口 |②---|
口口①① |③---|
20
①①口口 |①---|
口口口口 |----|
②口口口 |②---|
口③口口 |③---|
21
口口③口 |①---|
口口口② |----|
口口口口 |②---|
口口①① |③---|
22
①口口口 |①---|
口口口口 |----|
②口口口 |②---|
口③口口 |③---|
23
口口③口 |①---|
口口口② |----|
口口口口 |②---|
口口口① |③---|
24
①口口口 |①---|
口口口口 |----|
②口口口 |②---|
口③口口 |③---|
25
口口③口 |①---|
口口口② |----|
口口口口 |②---|
口口口① |③---|
26
口口口口 |①---|
口①①口 |----|
口口口口 |----|
口口口口 |----|
27
口口口口 |①---|
①口③口 |②---|
口口口口 |③---|
口②口④ |④---|
28
③口②① |①---|
口③口口 |----|
口口口口 |②---|
口口口口 |③---|
29
④②③口 |①---|
②④①口 |②---|
口口口口 |③---|
口口口口 |④---|
30
口口口口 |----|
口口口口 |----|
口①口② |①---|
口口②口 |②---|
31
口口口口 |①---|
口口口口 |②---|
口口②口 |----|
口①口② |----|
32
④②③口 |①---|
②④①口 |②---|
口口口口 |③---|
口口口口 |④---|
33
口口口口 |①---|
口口口口 |②---|
口②口④ |③---|
①口③口 |④---|
34
口②口口 |①---|
②口①口 |②---|
④口③口 |③---|
口④口口 |④---|
35
口②口口 |①---|
②口①口 |②---|
④口③口 |③---|
口④口口 |④---|
36
口口②口 |①---|
口①口② |②---|
口③口④ |③---|
口口④口 |④---|
37
口口②口 |①---|
口①口② |②---|
口③口④ |③---|
口口④口 |④---|
38
口口口口 |①---|
④口口口 |②---|
③口①口 |③---|
口②口口 |④---|
39
口①②口 |①---|
口口口③ |②---|
口口口④ |③---|
口口口口 |④---|
40
口口口口 |①---|
④口口口 |②---|
③口口口 |③---|
口②①口 |④---|
41
口①②口 |①---|
口口口③ |②---|
口口口④ |③---|
口口口口 |④---|
42
口口口口 |①---|
口口口口 |----|
口口口口 |--②-|
②①①② |----|
43
②口口② |①---|
③口口③ |----|
①口口① |②---|
口口口口 |③---|
44
口口口口 |①---|
口口⑤口 |②---|
口②口① |③-④-|
口④口③ |⑤---|
45
口口口口 |①---|
口口口口 |②---|
①⑤②口 |③-④-|
③口④口 |⑤---|
46
口口⑤口 |①---|
口②口① |②---|
口④口③ |③-④-|
口口口口 |⑤---|
47
口口口口 |①---|
①口②口 |②---|
③口④口 |③-④-|
口⑤口口 |⑤---|
48
口②口① |①---|
口④口③ |②---|
口口口口 |③-④-|
口口⑤口 |⑤---|
49
口口口口 |①---|
口⑤口口 |②---|
①口②口 |③-④-|
③口④口 |⑤---|
50
口口口口 |①---|
口口⑤口 |②---|
口②口① |③-④-|
口④口③ |⑤---|
51
口口口口 |①---|
口口口口 |②---|
①⑤②口 |③-④-|
③口④口 |⑤---|
52
口口⑤口 |①---|
口②口① |②---|
口④口③ |③-④-|
口口口口 |⑤---|
53
口口口口 |①---|
①③②口 |②---|
口④口口 |③--④|
口⑤口口 |--⑤-|
54
口②口① |①---|
口④口③ |②---|
口口口口 |③-④-|
口口⑤口 |⑤---|
55
口口口口 |①---|
口⑤口口 |②---|
①口②口 |③-④-|
③口④口 |⑤---|
56
⑥⑧口⑦ |①-②-|
④口口⑤ |③-④-|
②口口③ |⑤-⑥-|
口口口① |⑦-⑧-|
57
口⑤口⑥ |①--②|
口①①口 |--③-|
口②②⑤ |-④--|
④③③④ |⑤-⑥-|
58
①口②口 |①-②-|
③口④口 |③-④-|
⑤口⑥口 |⑤-⑥-|
⑦⑧⑧口 |⑦-⑧-|
59
⑦⑥口⑦ |--①-|
口④口⑤ |②-③-|
口②口③ |④-⑤-|
口口口① |⑥-⑦-|
60
口口①口 |--①-|
②口③口 |②-③-|
④口⑤口 |④-⑤-|
⑥⑦⑦口 |⑥-⑦-|
61
⑦⑥口⑦ |--①-|
口④口⑤ |②-③-|
口②口③ |④-⑤-|
口口口① |⑥-⑦-|
62
口口②口 |--①-|
①口④口 |②-③-|
③口⑥口 |④-⑤-|
⑤⑦口口 |⑥-⑦-|
63
⑧⑥口⑦ |①-②-|
口④口⑤ |③-④-|
口②口③ |⑤-⑥-|
口口口① |⑦-⑧-|
64
口口口口 |①-②-|
②口①口 |③-④-|
口④③口 |⑤-⑥-|
⑥⑧⑦⑤ |⑦-⑧-|
65
⑥⑧⑦⑤ |①-②-|
口④③口 |③-④-|
②口口① |⑤-⑥-|
口口口口 |⑦-⑧-|
66
口口口口 |①-②-|
口口口口 |③---|
⑤⑥④口 |④-⑤-|
口②③① |⑥---|
67
口⑥⑤口 |①-②-|
口②③① |③---|
⑦口口④ |④-⑤-|
口口口口 |⑥-⑦-|
68
口口口口 |①-②-|
口口口口 |③---|
口⑤⑥④ |④-⑤-|
②③①口 |⑥---|
69
口⑤⑥口 |①-②-|
②③①口 |③---|
④口口⑦ |④-⑤-|
口口口口 |⑥-⑦-|
70
口口口口 |①-②-|
口②①口 |③-④-|
口④③口 |⑤-⑥-|
⑧⑥⑤⑦ |⑦-⑧-|
71
⑥⑧⑦⑤ |①-②-|
④口口③ |③-④-|
②口口① |⑤-⑥-|
口口口口 |⑦-⑧-|
72
口口口口 |①-②-|
口②①口 |③-④-|
口④③口 |⑤-⑥-|
⑧⑥⑤⑦ |⑦-⑧-|
73
⑥⑧⑦⑤ |①-②-|
④口口③ |③-④-|
②口口① |⑤-⑥-|
口口口口 |⑦-⑧-|
74
口口口口 |①---|
口①①口 |----|
口①①口 |----|
口口口口 |----|

accuracy: 100%
最終更新:2022年04月21日 17:44