アットウィキロゴ
Lava Flow
BEMANI Sound Team "S-C-U & SYUNN"

EXTREME

Level: 10.1
BPM : 190
Notes: 637

1
口口口口 |----|
口口口口 |----|
口口口口 |----|
口口口口 |----|
2
口口口口 |①---|
口口口口 |--②-|
口口口口 |--③-|
①②③口 |----|
3
口口口口 |①---|
口口口⑤ |--②-|
口口④② |--③④|
口③口① |⑤---|
4
口③②① |①---|
口口口口 |--②-|
口①口口 |--③-|
口口口口 |----|
5
①口口口 |①---|
②⑥口口 |--②-|
③口①口 |--③④|
④⑤口口 |⑤-⑥-|
6
口③①口 |①---|
口口②口 |②-③-|
口口口①
口口口口

口口⑦口
④口口口
口⑤⑥口 |④-⑤-|
口口口口 |⑥-⑦-|
7
口口口口 |①---|
口①口口 |②-③-|
口口口③
①口②口

口口口口
⑥口④口
口⑤口口 |④-⑤-|
⑦口口口 |⑥-⑦-|
8
⑤④⑥④ |①-②-|
口③口③ |③-④-|
口口②口 |--⑤-|
⑥①⑤① |--⑥-|
9
口口口口 |----|
口口①口 |①---|
口②口口 |②---|
③口口口 |③---|
10
口①②③ |①-②-|
口④⑤口 |③---|
口④④口 |--④-|
口口口口 |--⑤-|
11
口②口口 |①-②-|
①口口① |--③-|
口⑤口⑦ |④-⑤-|
④③⑥口 |⑥-⑦-|
12
③②①口 |①-②-|
口⑤④口 |③---|
口④④口 |--④-|
口口口口 |--⑤-|
13
①口口口 |--①-|
⑥口口口 |--②-|
口口④口 |③-④-|
②⑤口③ |⑤-⑥-|
14
口①②③ |①-②-|
口④⑤口 |③---|
口④④口 |--④-|
口口口口 |--⑤-|
15
口口口① |--①-|
口口口⑥ |--②-|
口④口口 |③-④-|
③口⑤② |⑤-⑥-|
16
③②①口 |①-②-|
⑤⑤口口 |③-④-|
④口⑥⑧ |⑤--⑥|
口口⑦口 |⑦-⑧-|
17
④④⑤口 |①--②|
口⑩①① |③-④-|
⑥②⑨口 |⑤-⑥-|
⑧③⑦口 |⑦⑧⑨⑩|
18
口④口③ |①-②-|
④口①② |③---|
⑤口口⑥ |④--⑤|
口⑤⑥口 |--⑥-|
19
④⑤口口 |①-②-|
⑤②③口 |③-④-|
⑥口①口 |⑤--⑥|
口⑥⑦⑦ |--⑦-|
20
口④③口 |①-②-|
④②口口 |③---|
⑤口①⑥ |④--⑤|
口⑤⑥口 |--⑥-|
21
④⑤口口 |①-②-|
⑤②③口 |③-④-|
⑥口①口 |⑤--⑥|
口⑥⑦⑦ |--⑦-|
22
④口口③ |①-②-|
口口口② |③---|
⑤口口① |④--⑤|
口⑥口口 |--⑥-|
23
口口③口 |①-②-|
④口②口 |③---|
⑤口①口 |④--⑤|
口⑥口口 |--⑥-|
24
口⑤④口 |①-②-|
⑥口口③ |③-④-|
⑦口口② |⑤-⑥-|
口⑧①口 |⑦-⑧-|
25
⑥⑤口④ |①-②-|
口口口③ |③-④-|
⑦口口口 |⑤-⑥-|
⑧口①② |⑦-⑧-|
26
口口口口 |①---|
口口口口 |----|
口①①口 |----|
口口口口 |----|
27
④②口口 |①---|
口口③① |②---|
①③口口 |③---|
⑤口②口 |④-⑤-|
28
口②①口 |①---|
口口口④ |②---|
③口④① |③---|
口①④口 |④---|
29
口口②口 |①---|
⑤③④口 |②---|
⑦②⑥② |③--④|
口①⑧口 |⑤⑥⑦⑧|
30
口②口口 |①---|
④口口口 |②---|
口④口口 |③---|
①④口③ |④---|
31
口②口③ |①---|
口口口口 |②---|
②口②口 |③---|
口口①④ |④---|
32
口④②口 |①---|
口口口口 |②---|
④②④② |③---|
口①③口 |④---|
33
口口口口 |①-②-|
⑦⑤⑥④ |③-④-|
⑨③⑧② |⑤--⑥|
口①⑩口 |⑦⑧⑨⑩|
34
⑧⑨②⑧ |①---|
口⑦⑩② |②-③-④-|
⑧③口⑥ |⑤-⑥-⑦-|
①⑤口④ |⑧-⑨-⑩-|
35
口口口口 |①---|
④口口③ |②-③-④-|
口②②口
①口口口

口口口口
口⑥⑨口
⑧口口⑦ |⑤-⑥-⑦-|
⑩⑧⑤口 |⑧-⑨-⑩-|
36
②③④① |①---|
⑧⑨⑩⑤ |②-③-④-|
⑧②⑥口 |⑤-⑥-⑦-|
口⑦⑤口 |⑧-⑨-⑩-|
37
④⑥⑤① |①-②-③-|
口口口口 |④-⑤-⑥-|
口口口口
③口口②

口口口口
口⑩口⑨
⑧⑫⑦⑪ |⑦---⑧----⑨--|
口口口⑬ |⑩⑪⑫⑬|
38
口口口② |①---|
⑤口口口 |②---|
④口口口 |③---|
口①③口 |④-⑤-|
39
①③口④ |①---|
口口口⑤ |②---|
口口口口 |③---|
口②口口 |④-⑤-|
40
口⑥⑦口 |①-②-|
⑤口口⑧ |③-④-|
④口口① |⑤-⑥-|
口③②口 |⑦-⑧-|
41
③口口④ |①②③④|
口⑤⑧口 |⑤⑥⑦⑧|
⑦①⑥口
口口②口

口口⑫口
⑪口口⑭
口⑮口⑩ |⑨⑩⑪⑫|
⑬⑨口⑯ |⑬⑭⑮⑯|
42
①口口口 |①---|
口口④口 |----|
③口口口 |--②-|
口口②口 |③-④-|
43
①口口口 |①---|
④口口④ |②-③-|
⑥③②⑥ |④-⑤-|
口⑦⑤口 |⑥-⑦-|
44
②②⑤口 |①---|
口①④⑤ |②---|
⑥③口口 |③-④-|
口口口口 |⑤-⑥-|
45
口口口口 |--①-|
⑤口④口 |②-③-|
⑦③①② |④-⑤-|
口⑥②口 |⑥-⑦-|
46
②②⑥口 |①---|
⑦①⑤⑥ |②-③-|
口④口③ |④-⑤-|
口口口口 |⑥-⑦-|
47
口口⑤口 |--①-|
口①口⑦ |②-③-|
⑥⑥③② |④-⑤-|
口④②口 |⑥-⑦-|
48
口口口① |①---|
⑥②②⑥ |②-③-|
口⑤口口 |④-⑤-|
④⑦③口 |⑥-⑦-|
49
②口①② |--①-|
⑥③⑤⑥ |②-③-|
口⑧⑦口 |④-⑤-|
④口④口 |⑥-⑦⑧|
50
②②口口 |①---|
口口口口 |②-③④|
①口口口
口③④口

口口⑦口
口口⑥⑦
⑧口口口 |⑤-⑥-|
口口口⑤ |⑦-⑧-|
51
口③口① |--①-|
口④⑦口 |②-③-|
口口②② |④-⑤-|
⑥⑥⑤口 |⑥-⑦-|
52
②②⑥口 |--①-|
⑦⑧口⑥ |②-③-|
④①③⑤ |④-⑤-|
口口口口 |⑥-⑦⑧|
53
③⑥口④ |①---|
⑥口①⑥ |②-③-|
④口⑤口 |④--⑤|
口⑤②② |--⑥-|
54
⑧⑧①口 |①-②③|
口⑦②口 |④-⑤-|
口③⑨口 |⑥-⑦-|
⑤口④⑥ |⑧-⑨-|
55
口⑨口⑧ |①-②③|
①⑦②⑥ |④-⑤-|
⑪③⑩口 |⑥⑦⑧⑨|
口⑤④口 |⑩-⑪-|
56
⑧口⑩口 |①-②-|
①⑨⑦口 |③④⑤⑥|
口⑥口⑤ |⑦-⑧-|
②④口③ |⑨-⑩-|
57
口口口口 |①--②|
⑤口⑦① |--③-|
口③口⑥ |-④--|
④口②口 |⑤-⑥⑦|
58
口①⑥⑦ |①-②-|
口⑤口口 |③-④⑤|
④③②⑧ |⑥-⑦-|
口口口⑨ |⑧-⑨-|
59
口⑨⑧⑨ |①-②-|
④⑤口口 |③-④-|
口⑥⑦口 |⑤⑥⑦-|
③②①口 |⑧-⑨-|
60
⑧⑦⑧口 |--①-|
口口④③ |②-③-|
口⑥⑤口 |④⑤⑥-|
口①口② |⑦-⑧-|
61
口口口口 |--①-|
①⑤④口 |②-③-|
口⑥口③ |④⑤⑥-|
②⑧⑦⑧ |⑦-⑧-|
62
⑤⑦⑥口 |--①-|
③口④口 |②-③-|
①口②口 |④-⑤-|
口口口口 |⑥-⑦-|
63
⑧口口① |①-②-|
口②口⑦ |③-④-|
⑥口口③ |⑤-⑥-|
口④口⑤ |⑦-⑧-|
64
⑩⑥①⑤ |①②③-|
口②⑦口 |④-⑤-|
⑨⑧③④ |⑥⑦⑧-|
口口口口 |⑨-⑩-|
65
⑩口⑨口 |①-②-|
③⑧⑦① |③-④-|
口⑥⑤口 |⑤⑥⑦⑧|
口④②口 |⑨-⑩-|
66
口①口口 |①-②③|
②⑦⑧口 |④-⑤-|
③⑥⑨① |⑥-⑦-|
④口⑤口 |⑧-⑨-|
67
⑧口⑤④ |①-②③|
口⑥⑨③ |④-⑤-|
口口口② |⑥-⑦-|
口①⑦① |⑧-⑨-|
68
口①口口 |①-②③|
②⑧⑨⑤ |④-⑤-|
③⑥口① |⑥-⑦-|
④口口⑦ |⑧-⑨-|
69
①⑦口① |①-②③|
⑤口口④ |④⑤⑥⑦|
口口③口
口②⑥口

⑮口口⑭
口⑬⑫口
⑪口口⑩ |⑧⑨⑩⑪|
⑨口口⑧ |⑫⑬⑭⑮|
70
口口⑧⑦ |①-②-|
口口⑨⑥ |③-④-|
口①口⑤ |⑤-⑥-|
口②③④ |⑦⑧⑨-|
71
口口⑧⑦ |①-②-|
口口⑨⑥ |③-④-|
口口⑩⑤ |⑤-⑥-|
①②③④ |⑦⑧⑨⑩|
72
⑤⑥⑭⑬ |①②③④|
④⑦⑮⑫ |⑤⑥⑦⑧|
③⑧⑯⑪ |⑨⑩⑪⑫|
②①⑨⑩ |⑬⑭⑮⑯|
73
⑤⑥⑭⑬ |①②③④|
④⑦⑮⑫ |⑤⑥⑦⑧|
③⑧⑯⑪ |⑨⑩⑪⑫|
②①⑨⑩ |⑬⑭⑮⑯|
74
口口口口 |①---|
口口口口 |----|
①口口口 |----|
①①口口 |----|

accuracy: 100%
最終更新:2022年04月21日 18:12