アットウィキロゴ
Lava Flow [ 2 ]
BEMANI Sound Team "S-C-U & SYUNN"

EXTREME

Level: 10.2
BPM: 190
Notes(hold): 683(44)

1
口口口口 |----|
口口口口 |----|
口口口口 |----|
口口口口 |----|
2
口口口④ |①---|
①口口① |②-③-|
口口口口 |--④-|
口②③口 |----|
3
口口口④ |①---|
①口口① |②-③-|
口口口口 |--④-|
口②③口 |----|
4
口②③口 |①---|
口口口口 |②-③-|
①口口① |--④-|
④口口口 |----|
5
口②③口 |①---|
口口口口 |②-③-|
①口口① |--④-|
④口口口 |----|
6
①口口② |①-②-|
③口口④ |③-④-|
⑤口口⑥ |⑤-⑥-|
⑦口口⑧ |⑦-⑧-|
7
口口口口 |①-②-|
口口口口 |③-④-|
⑤③④⑥ |⑤-⑥-|
⑦①②⑧ |⑦-⑧-|
8
④⑤⑥⑦ |①②③④|
①②③口 |⑤⑥⑦-|
口口口口 |⑧-⑨-|
⑪⑨⑧⑩ |⑩-⑪-|
9
④③口④ |--①-|
①②③① |--②-|
③①口② |--③-|
口口②口 |--④-|
10
口口口口 |①---|
①口口① |②③④⑤|
⑥②③⑥ |--⑥-|
口④⑤口 |----|
11
④①③④ |--①-|
①③口① |--②-|
口口②③ |--③-|
口②口② |--④-|
12
口口口口 |①---|
①口口① |②③④⑤|
口②③口 |--⑥-|
口④⑤口 |⑦-⑧-|

口口口口
⑧口口口
口口口⑦
⑥口口口
13
⑤①⑧⑥ |①②③-|
口②口口 |④-⑤-|
口③④口 |⑥-⑦-|
口口⑨⑦ |⑧-⑨-|
14
③①口口 |①-②-|
⑤口口⑧ |③-④-|
⑦口口口 |⑤-⑥-|
④②口⑥ |⑦-⑧-|
15
⑤①⑧⑥ |①②③-|
口②口口 |④-⑤-|
口③④口 |⑥-⑦-|
口口⑨⑦ |⑧-⑨-|
16
③①口口 |①-②-|
⑤口口⑧ |③-④-|
⑦口口口 |⑤-⑥-|
④②口⑥ |⑦-⑧-|
17
⑤①口⑥ |①②③-|
口②口口 |④-⑤-|
口③④口 |⑥-⑦-|
口口口⑦ |----|
18
③①②④ |①---|
口口口口 |②---|
口⑤⑤口 |③--④|
④①②③ |--⑤-|
19
③①②④ |①---|
口口口口 |②---|
口⑤⑤口 |③--④|
④①②③ |--⑤-|
20
③①②④ |①---|
口口口口 |②---|
口⑤⑤口 |③--④|
④①②③ |--⑤-|
21
③①②④ |①---|
口口口口 |②---|
口⑤⑤口 |③--④|
④①②③ |--⑤-|
22
口①口口 |①-②-|
②⑥⑤口 |③-④-|
③口口口 |--⑤-|
口④口口 |⑥---|
23
口口①口 |①-②-|
口⑤⑥② |③-④-|
口口口③ |--⑤-|
口口④口 |⑥---|
24
口①口口 |①-②-|
②⑥⑤口 |③-④-|
③口口口 |--⑤-|
口④口口 |⑥---|
25
口口口口 |----|
口口口口 |----|
口口口口 |----|
口口口口 |----|
26
④口口口 |①---|
②口口口 |②---|
口③③口 |③---|
口①①口 |④---|
27
口口⑥② |①-②-|
口口口④ |③-④-|
口口⑤① |⑤-⑥-|
⑨⑧⑦③ |⑦⑧⑨-|
28
②>―① |①---|
④―<口 |②---|
口③③口 |③---|
口口口口 |④-⑤-|

口口口②
⑤口口口
口口口口
口口口口
29
口口④口 |①---|
⑤><② |②-③-|
口口口口 |④---|
口①口口 |⑤-⑥-|

口口口口
⑥口口③
口口口口
口口口口
30
口②口③ |①---|
―④口 |②---|
口②口③ |③---|
口①口口 |④-⑤-|

口口口口
口口⑤口
口口口口
口口口口
31
④⑤口口 |①---|
口②―< |②-③-|
口⑤口口 |④---|
口口①口 |⑤---|

口口口口
口③口口
口口口口
口口口口
32
口口口① |①---|
⑤><② |②-③-|
口口口① |④---|
口口④口 |⑤-⑥-|

口口口口
⑥口口③
口口口口
口口口口
33
口①④口 |①-②-|
口⑦⑧⑨ |③-④-|
口③②⑥ |⑤-⑥-|
口口⑤口 |⑦⑧⑨-|
34
口⑧⑦⑥ |①---|
②><⑥ |②③④-|
②③④口 |⑤---|
口①⑤口 |⑥⑦⑧-|

口口口口
④口口⑧
口口口口
口口口口
35
口口口口 |①---|
口①口口 |②③④-|
口口口口 |⑤---|
口口口口 |⑥⑦⑧-|

口⑧⑦⑥
②><⑥
②③④口
口口⑤口

口口口口
④口口⑧
口口口口
口口口口
36
口口口口 |①---|
口①口口 |②③④-|
口口口口 |⑤---|
口口口口 |⑥⑦⑧-|

口⑧⑦⑥
②><⑥
②③④口
口口⑤口

口口口口
④口口⑧
口口口口
口口口口
37
口口口口 |①---|
口①口口 |②③④-|
口口口口 |⑤---|
口口口口 |⑥⑦⑧-|

口⑧⑦⑥
②><⑥
②③④口
口口⑤口

口口口口
④口口⑧
口口口口
口口口口
38
口口口口 |①---|
口口口口 |②---|
③②< |③---|
①④< |④---|

口口口口
口口口口
口④③口
口②口口
39
③②< |①---|
①④< |②---|
口口口口 |③---|
口口①口 |④---|

口④③口
口②口口
口口口口
口口口口
40
①<>② |①-②-|
③<>④ |③-④-|
⑤<>⑥ |⑤-⑥-|
⑦<>⑧ |⑦-⑧-|

②口口③
④口①⑤
⑥口口⑦
⑧口口口
41
③⑦②⑥ |①②③④|
口⑤⑩口 |⑤⑥⑦⑧|
⑨①⑧⑫ |⑨⑩⑪⑫|
⑬⑪④① |⑬---|
42
口③口口 |①-②-|
①口口① |③-④-|
口②口口 |--⑤-|
口口口口 |⑥-⑦-|

④――<
口⑤⑤口
口口⑥口
口口⑦口

⑤口口口
口口口口
口口口口
口口口口
43
口口口口 |①-②-|
――④ |③-④-|
①口口① |--⑤-|
口②口③ |⑥-⑦-|

⑥⑤⑤口
⑦口口⑤
口口口口
口口口口
44
口⑤⑤① |①-②-|
口③②⑧ |③-④-|
⑦④①口 |⑤-⑥-|
③⑥⑥⑧ |⑦-⑧-|
45
――② |①-②-|
①④③口 |③---|
口⑦⑥口 |--④-|
口⑤口口 |⑤-⑥⑦|

口口口⑤
口口口口
口口口口
口口口口
46
⑤③口⑥ |①-②-|
③⑤口④ |③-④-|
①口⑧口 |⑤-⑥-|
口⑦②⑧ |⑦-⑧-|
47
口③④⑥ |①-②-|
口口⑥④ |③-④-|
①⑤口② |⑤-⑥-|
口口②口 |⑦-⑧-|

口口口口
口口口口
⑧口⑧口
口⑦口口
48
口口④口 |①-②-|
③④口口 |③-④-|
口⑤口② |⑤-⑥-|
①⑥①口 |⑦---|

⑦――<
口口口口
口口口口
口口口口
49
⑨口⑨④ |①-②-|
⑩⑧⑦② |③-④-|
⑪⑥⑤① |⑤⑥⑦⑧|
口口口③ |⑨-⑩⑪|
50
⑥⑧⑥⑤ |①---|
口口口④ |②-③④|
口⑦⑧③ |⑤-⑥-|
①②②口 |⑦-⑧-|
51
⑤口⑥口 |①-②-|
①⑤③⑥ |③-④-|
⑧⑦⑧④ |⑤-⑥-|
口③②口 |⑦-⑧-|
52
⑥③口② |①-②-|
③⑦②口 |③-④-|
口⑨⑧⑤ |⑤-⑥-|
口④①口 |⑦-⑧⑨|
53
⑥③口③ |①-②-|
⑤⑥⑤⑥ |③-④-|
①口⑦口 |⑤--⑥|
⑦④②⑦ |--⑦-|
54
⑤②口② |①--②|
口⑥④⑥ |--③-|
③①⑦① |④-⑤-|
口③③口 |⑥-⑦-|
55
⑥④⑥② |①-②-|
②⑥④口 |③-④-|
④②口⑤ |⑤-⑥-|
①口③① |⑦-⑧-|

口口口口
口口口口
口口口口
⑧⑦口口
56
④∨口④ |①---|
|③∨∨ |--②-|
|口②| |--③-|
∧口口① |--④-|

口口口口
口④口口
口口③口
口口口②
57
⑦口⑤口 |①-②-|
口口①⑥ |③-④-|
口⑧⑨② |⑤-⑥-|
口口③④ |⑦-⑧⑨|
58
口③④⑤ |①---|
口口⑥⑧ |②-③④|
口口口① |⑤-⑥-|
⑦⑤②口 |⑦-⑧-|
59
③⑧口⑥ |①-②-|
②⑤口口 |③-④-|
①③⑤⑦ |⑤-⑥-|
口④口口 |⑦-⑧-|
60
口口④⑥ |①---|
口③⑤② |②---|
口口口口 |③-④-|
⑤③②① |⑤-⑥-|
61
口⑥④口 |①---|
②口⑤③ |②---|
①②③⑤ |③-④-|
口口口口 |⑤-⑥-|
62
口口③④ |①---|
②口口口 |②---|
口口口口 |③---|
④③②① |④---|
63
口口口口 |①---|
③⑤②① |②-③-|
①②④⑤ |④---|
口口口口 |⑤---|
64
①②③ |①-②-|
口>④⑤ |③-④-|
――⑥ |⑤---|
口口口口 |⑥---|

口④口口
口口⑥口
口口口口
口口口口
65
①口口口 |①---|
口②口口 |②---|
③口口④ |③---|
口④⑤口 |④-⑤-|
66
④①③① |①-②-|
④口③⑥ |③-④-|
口②口⑥ |⑤-⑥-|
⑤口口口 |⑦-⑧-|

口⑧口⑧
口口口口
⑦口口口
口口口口
67
③⑧②⑧ |①-②-|
③⑤②⑤ |③-④-|
口口⑦口 |⑤-⑥-|
④⑥⑥① |⑦-⑧-|
68
⑥口⑥口 |①-②-|
②口③∨ |③-④-|
④①口① |⑤-⑥-|
⑦⑧⑤⑧ |⑦-⑧-|

口口口口
口口口口
口口口③
口口口口
69
口①口① |--①②|
②③④⑤ |③④⑤⑥|
⑥⑦⑧⑨ |⑦⑧⑨⑩|
⑩⑪⑫⑬ |⑪⑫⑬-|
70
②④口① |①-②-|
④口口③ |③-④-|
⑥⑩⑨⑤ |⑤-⑥-|
口⑧⑦口 |⑦⑧⑨⑩|
71
②口②口 |①--②|
④③①口 |--③-|
⑥口口③ |④-⑤-|
⑤⑦⑦⑤ |⑥-⑦-|
72
⑦④②① |①②③④|
⑪⑧⑤③ |⑤⑥⑦⑧|
⑭⑫⑨⑥ |⑨⑩⑪⑫|
⑯⑮⑬⑩ |⑬⑭⑮⑯|
73
⑦④②① |①②③④|
⑪⑧⑤③ |⑤⑥⑦⑧|
⑭⑫⑨⑥ |⑨⑩⑪⑫|
⑯⑮⑬⑩ |⑬⑭⑮⑯|
最終更新:2022年04月07日 16:05