アットウィキロゴ
Come to Life
ARM (IOSYS) feat. Nicole Curry

BASIC

Level: 3
BPM: 180
Notes: 275

1
口口口口 |----|
口口口口 |----|
口口口口 |----|
口口口口 |----|
2
口口口口 |----|
口口口口 |----|
口口口口 |----|
口口口口 |----|
3
口口口口 |①---|
口口口口 |----|
口口口① |②---|
口③②口 |③---|
4
口口口口 |①---|
口②③口 |----|
①口口口 |②---|
口口口口 |③---|
5
口口口口 |①---|
口口口口 |----|
口口口① |②---|
口③②口 |③---|
6
口口口口 |①---|
口②③口 |----|
①口口口 |②---|
口口口口 |③---|
7
口口口口 |①---|
口口口口 |----|
口口口① |②---|
口③②口 |③---|
8
口口口口 |①---|
口②③口 |----|
①口口口 |②---|
口口口口 |③---|
9
口口口口 |①---|
口口口口 |----|
口口口① |②---|
口口②口 |----|
10
口口口口 |①---|
口口口口 |----|
口①口口 |②---|
②口口口 |----|
11
口口口口 |①---|
口②③口 |----|
①口口口 |②---|
口口口口 |③---|
12
口口口口 |①---|
口口口口 |----|
口口口① |②---|
口③②口 |③---|
13
口口口口 |①---|
口②③口 |----|
①口口口 |②---|
口口口口 |③---|
14
口口口口 |①---|
口口口口 |----|
口口口① |②---|
口③②口 |③---|
15
口口口口 |①---|
口②③口 |----|
①口口口 |②---|
口口口口 |③---|
16
口口口口 |①---|
口口口口 |----|
口口口① |②---|
口③②口 |③---|
17
口口口口 |①---|
口②口口 |②---|
①口③口 |③---|
口④口口 |④---|
18
口口口口 |①---|
口口口口 |----|
①口口口 |----|
口口口口 |----|
19
③口口口 |①---|
口②口口 |--②-|
口口①口 |----|
口口口口 |③---|
20
口口口口 |----|
口口口口 |----|
口口口口 |----|
口口口口 |----|
21
口口口③ |①---|
口口②口 |--②-|
口①口口 |----|
口口口口 |③---|
22
口口口口 |----|
口口口口 |----|
口口口① |①---|
口口口口 |----|
23
③口口口 |①---|
口②口口 |--②-|
口口①口 |----|
口口口口 |③---|
24
口口口口 |----|
口口口口 |----|
①口口口 |①---|
口口口口 |----|
25
口口口③ |①---|
口口②口 |--②-|
口①口口 |----|
口口口口 |③---|
26
口口口口 |----|
口口口口 |----|
口口口① |①---|
口口口口 |----|
27
口③口口 |①---|
口②口口 |----|
口口①口 |②---|
口口口口 |③---|
28
口口③口 |①---|
口口②口 |----|
口①口口 |②---|
口口口口 |③---|
29
口③口口 |①---|
口②口口 |----|
口口①口 |②---|
口口口口 |③---|
30
口口③口 |①---|
口口②口 |----|
口①口口 |②---|
口口口口 |③---|
31
口口口口 |①---|
④①口口 |②---|
③②口口 |③---|
口口口口 |④---|
32
口口口口 |①---|
口口①④ |②---|
口口②③ |③---|
口口口口 |④---|
33
口口口口 |①---|
④①口口 |②---|
③②口口 |③---|
口口口口 |④---|
34
口口口口 |①---|
口口①④ |②---|
口口②③ |③---|
口口口口 |④---|
35
口①①口 |①---|
口口口口 |----|
口口口口 |----|
口口口口 |----|
36
口口口口 |①---|
口口①① |----|
口口②② |②---|
口口口口 |----|
37
口口口口 |①---|
口口口口 |----|
口口口口 |②---|
口②①口 |----|
38
口口口口 |①---|
①①口口 |----|
②②口口 |②---|
口口口口 |----|
39
口口口口 |①---|
口口口口 |----|
口口口口 |②---|
口①②口 |----|
40
口口口口 |①---|
口口①① |----|
口口②② |②---|
口口口口 |----|
41
口口口口 |①---|
口口口口 |----|
口口口口 |②---|
口②①口 |----|
42
口口口口 |①---|
口口口口 |----|
①②口口 |②---|
口口口口 |----|
43
口口口口 |①---|
口口口口 |----|
口口①② |②---|
口口口口 |----|
44
口口口口 |----|
口①①口 |①---|
口口口口 |----|
口口口口 |----|
45
口口口口 |①---|
口口口口 |----|
口口口口 |②---|
口②①口 |----|
46
口口口口 |①---|
①①口口 |----|
②②口口 |②---|
口口口口 |----|
47
口口口口 |①---|
口口口口 |----|
口口口口 |②---|
口①②口 |----|
48
口口口口 |①---|
口口①① |----|
口口②② |②---|
口口口口 |----|
49
口口口口 |①---|
口③③口 |----|
口口口口 |②---|
口②①口 |--③-|
50
口口口口 |----|
口口口口 |--①-|
②①①② |----|
口口口口 |--②-|
51
口口口口 |----|
①口口① |--①-|
口口口口 |----|
口口口口 |----|
52
口口口口 |①---|
口①口口 |--②-|
口口②口 |----|
口口口③ |③---|
53
口口口口 |----|
口口口口 |----|
口口口口 |----|
口口口口 |----|
54
口口口口 |①---|
④③②① |②---|
口口口口 |③---|
口口口口 |④---|
55
口口口口 |①---|
口口口口 |②---|
①②③④ |③---|
口口口口 |④---|
56
口口口口 |①---|
④③②① |②---|
口口口口 |③---|
口口口口 |④---|
57
口口口口 |①---|
口口口口 |②---|
①②③④ |③---|
口口口口 |④---|
58
口口口口 |①---|
④③②① |②---|
口口口口 |③---|
口口口口 |④---|
59
口口口口 |①---|
口口口口 |②---|
①②③④ |③---|
口口口口 |④---|
60
口口口口 |①---|
口②①口 |②---|
口④③口 |③---|
口口口口 |④---|
61
口口口口 |①---|
④口口③ |②---|
②口口① |③---|
口口口口 |④---|
62
口口口口 |①---|
口②①口 |②---|
口④③口 |③---|
口口口口 |④---|
63
口口口口 |①---|
④口口③ |②---|
②口口① |③---|
口口口口 |④---|
64
口口口口 |①---|
口②①口 |②---|
口④③口 |③---|
口口口口 |④---|
65
口口口口 |①---|
④口口③ |②---|
②口口① |③---|
口口口口 |④---|
66
口口口口 |①---|
口②①口 |②---|
口④③口 |③---|
口口口口 |④---|
67
口口口口 |①---|
④口口③ |②---|
②口口① |③---|
口口口口 |④---|
68
口口口口 |①---|
口①①口 |----|
口②②口 |②---|
口口口口 |----|
69
口口口口 |①---|
①口口① |----|
②口口② |②---|
口口口口 |----|
70
口口口口 |①---|
口①①口 |----|
口②②口 |②---|
口口口口 |----|
71
口口口口 |①---|
①口口① |----|
②口口② |②---|
口口口口 |----|
72
口①①口 |①---|
口②②口 |----|
口口口口 |②---|
口口口口 |----|
73
口口口口 |①---|
口口口口 |----|
口①①口 |②---|
口②②口 |----|
74
口口口口 |①---|
②口口② |----|
①口口① |②---|
口口口口 |----|
75
①口口① |①---|
口口口口 |----|
口口口口 |----|
口口口口 |----|
76
口口口③ |①---|
口口②口 |--②-|
口①口口 |----|
口口口口 |③---|
77
口口口口 |----|
口口口口 |----|
口口口① |①---|
口口口口 |----|
78
③口口口 |①---|
口②口口 |--②-|
口口①口 |----|
口口口口 |③---|
79
口口口口 |----|
口口口口 |----|
①口口口 |①---|
口口口口 |----|
80
口口口口 |①---|
①②③④ |②---|
口口口口 |③---|
口口口口 |④---|
81
口口口口 |①---|
口口口口 |②---|
④③②① |③---|
口口口口 |④---|
82
口口口口 |①---|
①②③④ |②---|
口口口口 |③---|
口口口口 |④---|
83
口口口口 |①---|
口口口口 |②---|
④③②① |③---|
口口口口 |④---|
84
口口口口 |①---|
①②③④ |②---|
口口口口 |③---|
口口口口 |④---|
85
口口口口 |①---|
口口口口 |②---|
④③②① |③---|
口口口口 |④---|
86
口口口口 |①---|
①②③④ |②---|
口口口口 |③---|
口口口口 |④---|
87
口口口口 |①---|
口口口口 |②---|
④③②① |③---|
口口口口 |④---|
88
口口口口 |①---|
口①①口 |----|
口口口口 |----|
口②②口 |--②-|
89
口口口口 |----|
口口口口 |----|
口口口口 |----|
口口口口 |----|
90
口口口口 |①---|
③口口③ |--②-|
口②②口 |----|
①口口① |③---|

accuracy: 100%
最終更新:2022年04月07日 16:08