アットウィキロゴ
Come to Life
ARM (IOSYS) feat. Nicole Curry

ADVANCED

Level: 8
BPM: 180
Notes: 481

1
口口口口 |----|
口口口口 |----|
口口口口 |----|
口口口口 |----|
2
口口口口 |----|
口口口口 |----|
口口口口 |----|
口口口口 |----|
3
口④口口 |①---|
④口口① |②---|
口口口口 |③---|
口口③② |④---|
4
④口口口 |①---|
口④口① |②---|
口口③② |③---|
口口口口 |④---|
5
口口口④ |①---|
①口口口 |②---|
②③口口 |③---|
口口口口 |④---|
6
口口口口 |①---|
口口①口 |②---|
口④②口 |③---|
口口③口 |④---|
7
口口④口 |①---|
①口口④ |②---|
口口口口 |③---|
②③口口 |④---|
8
口口口④ |①---|
①口④口 |②---|
②③口口 |③---|
口口口口 |④---|
9
①口口口 |①---|
口②口口 |----|
口口口口 |②---|
口口口口 |----|
10
口口口口 |①---|
口口口口 |----|
①口③口 |②---|
口②口口 |③---|
11
口④口口 |①---|
④口口① |②---|
口口口口 |③---|
口口③② |④---|
12
④口口口 |①---|
口④口① |②---|
口口③② |③---|
口口口口 |④---|
13
口口口④ |①---|
①口口口 |②---|
②③口口 |③---|
口口口口 |④---|
14
口口口口 |①---|
口口①口 |②---|
口④②口 |③---|
口口③口 |④---|
15
②③口口 |①---|
①④口口 |②---|
口口口口 |③---|
口口口口 |④---|
16
口口②③ |①---|
口口①④ |②---|
口⑤口口 |③---|
口口口口 |④-⑤-|
17
⑥④⑦⑤ |①-②-|
⑧②③口 |③-④-|
口口①口 |⑤-⑥-|
口口口口 |⑦-⑧-|
18
口口口口 |①---|
口口口口 |----|
口①口口 |----|
口口口口 |----|
19
口口口口 |①---|
口口口口 |--②-|
口口②口 |----|
口③口① |③---|
20
口口口口 |----|
口口口口 |----|
①口口口 |----|
口口口口 |①---|
21
口口口口 |①---|
口口口口 |--②-|
口②口口 |----|
①口③口 |③---|
22
口口口口 |----|
口口口② |①---|
口口口① |②---|
口口口口 |----|
23
口④口① |①---|
口③②口 |--②-|
口口口口 |③---|
口口口口 |④---|
24
口口口口 |----|
①③口口 |①---|
②口口口 |②---|
口口口口 |③---|
25
口口口口 |①---|
口口②口 |②-③-|
口口③④ |--④-|
口①口⑤ |⑤---|
26
③口①口 |----|
口②口口 |①---|
口口口口 |②---|
口口口口 |③---|
27
⑤口⑤口 |①---|
口④口口 |②---|
①③口② |③-④-|
口口口口 |⑤---|
28
口⑤口⑤ |①---|
①口④② |②---|
口口③口 |③-④-|
口口口口 |⑤---|
29
⑤口⑤口 |①---|
口④口口 |②---|
①③口② |③-④-|
口口口口 |⑤---|
30
口⑤口⑤ |①---|
①口④② |②---|
口口③口 |③-④-|
口口口口 |⑤---|
31
④⑤④⑤ |①---|
口③口口 |②-③-|
口②口口 |④---|
①口①口 |⑤---|
32
口口口口 |①-②-|
口⑥①口 |③---|
口⑤②口 |④---|
口③④③ |⑤-⑥-|
33
④②①③ |①-②-|
⑥口口⑤ |③-④-|
⑧口口⑦ |⑤-⑥-|
口口口口 |⑦-⑧-|
34
口⑧⑦口 |①-②-|
口⑥⑤口 |③-④-|
口④③口 |⑤-⑥-|
口②①口 |⑦-⑧-|
35
口口口口 |----|
口口口口 |----|
口口口口 |----|
口口口口 |----|
36
口口口⑤ |①---|
口③口④ |②---|
①口③① |③---|
②口口② |④-⑤-|
37
口口⑤口 |①-②-|
①⑥口口 |③-④-|
口②⑦口 |⑤-⑥-|
口⑧③④ |⑦-⑧-|
38
⑤口口口 |①---|
④口③口 |②---|
①③口口 |③---|
②口口② |④-⑤-|
39
口口口⑧ |①-②-|
口⑤⑥① |③-④-|
④口②⑦ |⑤-⑥-|
口③口口 |⑦-⑧-|
40
⑤口口口 |--①-|
①③口① |②---|
④口③口 |③---|
②口口② |④-⑤-|
41
⑦①口口 |①-②-|
口口②口 |③-④-|
⑥口口③ |⑤-⑥-|
口⑤④口 |⑦---|
42
口口口① |①---|
口口②口 |②---|
口③口口 |③---|
④口口口 |④---|
43
④口⑤口 |①---|
口③口口 |②---|
口口②口 |③---|
口口口① |④-⑤-|
44
口口口④ |----|
口②口③ |①---|
①口②① |②---|
口口口口 |③-④-|
45
口口⑤口 |①-②-|
①⑥口口 |③-④-|
口②⑦口 |⑤-⑥-|
口⑧③④ |⑦-⑧-|
46
⑤口口口 |①---|
④口③口 |②---|
①③口口 |③---|
②口口② |④-⑤-|
47
口口口⑧ |①-②-|
口⑤⑥① |③-④-|
④口②⑦ |⑤-⑥-|
口③口口 |⑦-⑧-|
48
⑤口口口 |--①-|
①③口① |②---|
④口③口 |③---|
②口口② |④-⑤-|
49
⑤①①⑤ |①---|
②口④② |②---|
口④③口 |③---|
口③口口 |④-⑤-|
50
口①③口 |----|
②口口④ |①-②-|
④口口② |----|
口③①口 |③-④-|
51
口②口口 |--①-|
口口①口 |--②-|
口①口口 |----|
口口②口 |----|
52
口口口口 |①---|
口口口口 |--②-|
口口②口 |----|
口③口① |③---|
53
口口口口 |----|
①口口口 |----|
②口口口 |----|
口口口口 |①-②-|
54
⑦口⑥口 |①-②-|
口⑤④口 |③-④-|
口③口口 |⑤-⑥-|
①口②口 |⑦---|
55
口⑥口⑦ |①-②-|
口④⑤口 |③-④-|
口口③口 |⑤-⑥-|
口②口① |⑦---|
56
⑦口⑥口 |①-②-|
口⑤④口 |③-④-|
口③口口 |⑤-⑥-|
①口②口 |⑦---|
57
口⑥口⑦ |①-②-|
口④⑤口 |③-④-|
口口③口 |⑤-⑥-|
口②口① |⑦---|
58
⑦口⑥口 |①-②-|
口⑤④口 |③-④-|
口③口口 |⑤-⑥-|
①口②口 |⑦---|
59
口⑥口⑦ |①-②-|
口④⑤口 |③-④-|
口口③口 |⑤-⑥-|
口②口① |⑦---|
60
口口口④ |①---|
口口口② |--②-|
口口③① |③---|
④②①口 |④---|
61
口口口口 |----|
口口口口 |----|
口口口口 |----|
口口口口 |----|
62
④口口口 |①---|
②口口口 |--②-|
①③口口 |③---|
口①②④ |④---|
63
口口口口 |----|
口口口口 |----|
口口口口 |----|
口口口口 |----|
64
④口口口 |①---|
⑤③口① |②-③-|
口口②口 |④---|
口①⑤口 |⑤---|
65
口口口③ |①-②-|
口⑥②④ |③---|
口①⑤口 |④---|
口④口口 |⑤-⑥-|
66
①口②口 |①-②-|
③口④口 |③-④-|
⑤口⑥口 |⑤-⑥-|
⑦口⑧口 |⑦-⑧-|
67
口⑦口⑧ |①-②-|
口⑤口⑥ |③-④-|
口③口④ |⑤-⑥-|
口①口② |⑦-⑧-|
68
口口口口 |①---|
④口③④ |②---|
口③①口 |③---|
口口②口 |④---|
69
口③口③ |①---|
⑤口口口 |②---|
①口口口 |③---|
②口④口 |④-⑤-|
70
口口口口 |①---|
④③口④ |②---|
口①③口 |③---|
口②口口 |④---|
71
③口③口 |①---|
口④⑤口 |②---|
口口口① |③---|
口口口② |④-⑤-|
72
口口口口 |①---|
①④④① |②---|
②③③② |③---|
口口口口 |④---|
73
②口口① |①-②-|
④口口③ |③-④-|
⑥口口⑤ |⑤-⑥-|
⑧口口⑦ |⑦-⑧-|
74
口口口口 |①---|
③①①③ |②---|
口②②口 |③---|
口④④口 |④---|
75
①口口① |①---|
口口口口 |----|
口口口口 |----|
口口口口 |----|
76
口口口口 |①---|
口口②口 |②-③-|
口④③口 |----|
口⑤口① |④-⑤-|
77
口口口口 |----|
口口口口 |----|
②口口口 |①---|
①口口口 |②---|
78
口口口口 |①---|
①口口口 |--②-|
口②口口 |----|
口口③口 |③---|
79
口口口口 |----|
口口口口 |----|
口口口口 |----|
口口口口 |----|
80
⑦口⑥口 |①-②-|
口⑤④口 |③-④-|
口③口口 |⑤-⑥-|
①口②口 |⑦---|
81
口⑥口⑦ |①-②-|
口④⑤口 |③-④-|
口口③口 |⑤-⑥-|
口②口① |⑦---|
82
口⑥口口 |①-②-|
⑤口口口 |③-④-|
口③④口 |⑤---|
①口②口 |⑥---|
83
口口⑥口 |①-②-|
口口口⑤ |③-④-|
口④③口 |⑤---|
口②口① |⑥---|
84
⑦口⑥口 |①-②-|
口⑤④口 |③-④-|
口③口口 |⑤-⑥-|
①口②口 |⑦---|
85
口⑥口⑦ |①-②-|
口④⑤口 |③-④-|
口口③口 |⑤-⑥-|
口②口① |⑦---|
86
⑦口⑥口 |①-②-|
口⑤④口 |③-④-|
口③口口 |⑤-⑥-|
①口②口 |⑦---|
87
口⑥口⑦ |①-②-|
口④⑤口 |③-④-|
口口③口 |⑤-⑥-|
口②口① |⑦---|
88
口口①口 |①---|
③②口③ |----|
口①口口 |--②-|
口口口口 |--③-|
89
口口口口 |--①-|
口口①口 |--②-|
口②口口 |--③-|
口口③口 |----|
90
口口①③ |①---|
口②口口 |--②-|
口口②口 |----|
③①口口 |③---|

accuracy: 100%
最終更新:2022年04月07日 16:08