アットウィキロゴ
Come to Life
ARM (IOSYS) feat. Nicole Curry

EXTREME

Level: 9.8
BPM : 180
Notes: 815

1
口口口口 |----|
口口口口 |----|
口口口口 |----|
口口口口 |----|
2
口口口口 |----|
口口口口 |----|
口口口口 |----|
口口口口 |----|
3
⑤⑧①⑧ |①-②③|
⑦口口口 |④-⑤-|
口口④② |⑥-⑦-|
⑥口③口 |⑧---|
4
⑧口⑧口 |①-②③|
口①⑤口 |④-⑤-|
③④口⑦ |⑥-⑦-|
口②口⑥ |⑧---|
5
口口口口 |①②③④|
⑪①口⑥ |⑤-⑥⑦|
⑦③②⑧ |⑧⑨⑩-|
⑨⑤④⑩ |⑪---|
6
②口口① |①---|
口口③口 |②---|
口④口口 |③---|
口口口口 |④---|
7
⑤⑧①⑧ |①-②③|
⑦口口口 |④-⑤-|
口口④② |⑥-⑦-|
⑥口③口 |⑧---|
8
⑧口⑧口 |①-②③|
口①口⑤ |④-⑤-|
③④口⑦ |⑥-⑦-|
口②口⑥ |⑧---|
9
⑩口口⑤ |①②-③|
⑨①⑥④ |-④-⑤|
口⑧③口 |⑥⑦-⑧|
口②⑦口 |-⑨-⑩|
10
口②①⑦ |①---|
⑥①口③ |②-③-|
口口①口 |④-⑤-|
口④口⑤ |⑥-⑦-|
11
⑥⑧⑨口 |①-②③|
口⑦⑤⑨ |④-⑤-|
①口④② |⑥⑦⑧-|
口口③口 |⑨---|
12
口⑨⑧⑥ |①-②③|
⑨⑤⑦口 |④-⑤-|
②④口① |⑥⑦⑧-|
口③口口 |⑨---|
13
⑪口口口 |①②③④|
口口⑥① |⑤-⑥⑦|
②⑦⑧③ |⑧⑨⑩-|
④⑨⑩⑤ |⑪---|
14
口口口口 |①②-③|
②③④⑤ |-④-⑤|
①⑨口⑥ |⑥-⑦⑧|
口⑧⑦口 |⑨---|
15
口口口④ |①-②-|
口②口口 |③-④-|
口口口口
①口口③

口⑦口口
⑦口口⑤
口口口口 |⑤-⑥-|
⑧口⑥口 |⑦-⑧-|
16
口⑦口③ |①-②-|
⑦①⑤口 |③-④-|
口口②⑧ |⑤-⑥-|
口⑥⑧④ |⑦-⑧-|
17
⑥口口③ |①②③④|
口②⑦⑤ |⑤⑥⑦⑧|
⑧④①口
口口口口

口⑫⑪口
⑭⑯口口
口口⑮口 |⑨⑩⑪⑫|
口⑩⑬⑨ |⑬⑭⑮⑯|
18
口口口① |①---|
③口②口 |----|
口⑤口口 |②-③-|
④口口口 |④-⑤-|
19
口口口口 |①---|
口口口口 |--②-|
口口口③ |----|
口口①② |③---|
20
口口口口 |----|
口口①口 |----|
口②口口 |----|
口口口口 |①-②-|
21
③⑤口口 |①---|
①②口口 |②-③-|
④口口口 |--④-|
口口口口 |⑤---|
22
口口口口 |----|
口口①口 |①---|
口④②口 |②---|
③口口口 |③-④-|
23
口口口口 |①---|
口口口② |②-③-|
口口口⑤ |④---|
口④①③ |⑤---|
24
口口口口 |----|
口②③口 |①---|
口④①口 |②---|
口口口口 |③-④-|
25
③⑥④口 |①---|
①口⑤口 |②-③-|
②口口口 |④-⑤-|
口口口口 |⑥---|
26
④口口④ |----|
口①口③ |①---|
③口②口 |②---|
口口口口 |③-④-|
27
⑦⑥口⑦ |①-②-|
②④⑤口 |③-④-|
口⑤口③ |⑤-⑥-|
③①①口 |⑦---|
28
⑦口⑥⑦ |①-②-|
口⑤④② |③-④-|
③口⑤口 |⑤-⑥-|
口①①③ |⑦---|
29
⑦⑥口⑦ |①-②-|
②④⑤口 |③-④-|
口⑤口③ |⑤-⑥-|
③①①口 |⑦---|
30
口口口口 |①-②-|
口口④② |③-④-|
③口口口
口①①③

⑦口⑥⑦
口⑤口口
口口⑤口 |⑤-⑥-|
口口⑧口 |⑦-⑧-|
31
口口口口 |①-②-|
②④口口 |③-④-|
口口口③
③①口口

⑦⑥口⑦
口口⑤口
口⑤口口 |⑤-⑥-|
口⑧口口 |⑦-⑧-|
32
口口口口 |①-②-|
口口④② |③-④-|
③口口口
口口①③

⑦口⑥⑦
口⑤口口
口口⑤口 |⑤-⑥-|
口口⑧口 |⑦-⑧-|
33
口⑦⑥⑧ |①-②-|
⑤口口④ |③-④-|
③口口② |⑤-⑥-|
口①口口 |⑦-⑧-|
34
①口口口 |①②③④|
⑦口口④ |⑤⑥⑦⑧|
口③②⑧
口⑤⑥口

口⑪⑩口
口⑬⑫口
⑨口⑯口 |⑨⑩⑪⑫|
⑮口口⑭ |⑬⑭⑮⑯|
35
口口口口 |①---|
口口口口 |----|
口①口口 |----|
口口口口 |----|
36
口②②⑥ |①---|
口③口① |②---|
①口③④ |③--④|
口②②⑤ |⑤-⑥-|
37
⑤口口⑦ |①-②-|
①⑥①⑧ |③-④-|
⑤②⑦口 |⑤-⑥-|
③④③口 |⑦-⑧-|
38
⑥②②口 |①---|
①口③口 |②---|
④③口口 |③--④|
⑤②②① |⑤-⑥-|
39
⑧口口⑤ |①-②-|
口①⑥① |③-④-|
口口②⑤ |⑤-⑥-|
⑦③④③ |⑦-⑧-|
40
口②②⑥ |--①-|
口①口③ |②---|
③口①④ |③--④|
口②②⑤ |⑤-⑥-|
41
⑦口⑤口 |①-②-|
①⑦①口 |③-④-|
⑦②⑥⑤ |⑤-⑥-|
③④③口 |⑦---|
42
口④⑤⑩ |①-②-|
⑥⑨口③ |③-④⑤|
口①⑦口 |⑥⑦⑧-|
口⑧②口 |⑨-⑩-|
43
④④口口 |①②③-|
⑩⑧⑤⑨ |④-⑤⑥|
口⑦⑥① |⑦-⑧-|
⑩口③② |⑨-⑩-|
44
⑤①①口 |----|
口②口口 |①---|
③口②口 |②--③|
④①①口 |④-⑤-|
45
口③②口 |①-②-|
①口①口 |③-④-|
口②口口
口④③④

⑦口口⑤
⑧⑤口口
⑥口⑥⑦ |⑤-⑥-|
⑧口口口 |⑦-⑧-|
46
口②②⑥ |①---|
口口③① |②---|
③①口④ |③--④|
口②②⑤ |⑤-⑥-|
47
⑫⑥⑤口 |①②③④|
⑪④⑦口 |⑤⑥⑦⑧|
⑧⑩①⑨ |⑨-⑩-|
口②③口 |⑪-⑫-|
48
⑦③③④ |①-②-|
口②口① |③---|
⑤口②④ |④--⑤|
⑥③③口 |⑥-⑦-|
49
口⑪④⑪ |①-②-③-|
①②⑤口 |④-⑤-⑥-|
⑦⑥③⑩ |⑦-⑧-⑨-|
口⑧⑨口 |⑩-⑪-|
50
⑥口⑥口 |--①-|
口⑤①口 |②-③-|
口④②口 |--④-|
口③口③ |⑤-⑥-|
51
口⑨⑩⑨ |--①②|
②口⑧① |③④⑤⑥|
④口⑦③ |⑦-⑧-|
口⑥⑤口 |⑨-⑩-|
52
口口口口 |①---|
口口口① |--②-|
口口②口 |----|
口③口口 |③---|
53
口口①口 |----|
口②口口 |----|
口口口口 |----|
口口口口 |①-②-|
54
①⑩⑧⑪ |①-②③|
口⑨口口 |④-⑤⑥|
⑤⑦④② |⑦-⑧⑨|
口⑥③口 |⑩-⑪-|
55
①口口口 |①-②③|
口⑨⑩⑧ |④-⑤⑥|
⑤⑦④② |⑦-⑧-|
口⑥③口 |⑨-⑩-|
56
①⑩⑧⑪ |①-②③|
口⑨口口 |④-⑤⑥|
⑤⑦④② |⑦-⑧⑨|
口⑥③口 |⑩-⑪-|
57
①口口口 |①-②③|
口⑨⑩⑧ |④-⑤⑥|
⑤⑦④② |⑦-⑧-|
口⑥③口 |⑨-⑩-|
58
①⑩⑧⑪ |①-②③|
口⑨口口 |④-⑤⑥|
⑤⑦④② |⑦-⑧⑨|
口⑥③口 |⑩-⑪-|
59
①口口口 |①-②③|
口口口口 |④-⑤⑥|
⑤口④②
口⑥③口

⑩⑨口口
⑩⑨口⑧
口⑦口口 |⑦-⑧-|
口口口口 |⑨-⑩-|
60
口⑤①口 |①---|
口口④口 |②-③-|
口口③① |④---|
②④⑤③ |⑤---|
61
⑦口⑦口 |①-②-|
②④⑤① |③-④-|
口口⑥③ |⑤-⑥-|
口口口口 |⑦---|
62
口①口⑤ |①---|
口④口口 |②-③-|
①③口口 |④---|
③⑤④② |⑤---|
63
口⑦口⑦ |①-②-|
①⑤④② |③-④-|
③⑥口口 |⑤-⑥-|
口口⑧口 |⑦-⑧-|
64
口口①口 |①---|
④⑤③口 |②-③-|
③⑥④① |④--⑤|
口②⑦口 |⑥-⑦-|
65
②口③① |①-②-|
口口口口 |③---|
口口口口
①③口②

口④口口
口口⑤口
⑥口⑥⑦ |④--⑤|
⑦口口口 |⑥-⑦-|
66
口口口口 |①--②|
⑤②口① |③-④-|
口③口⑥ |⑤--⑥|
⑧口④⑦ |⑦-⑧-|
67
⑩②①⑨ |①②③④|
⑫④③⑪ |⑤⑥⑦⑧|
⑭⑥⑤⑬ |⑨⑩⑪⑫|
⑯⑧⑦⑮ |⑬⑭⑮⑯|
68
口口口口 |①---|
口②①口 |②---|
口口②口
口口口口

口口③口
④口⑥④
⑤口口口 |③--④|
口③口口 |⑤-⑥-|
69
⑤③④口 |①-②-|
口口口⑥ |③---|
口①②口 |④---|
口④③⑤ |⑤-⑥-|
70
口口口口 |①---|
口②①口 |②---|
口口②口
口口口口

口口③③
④口⑥④
⑤口口口 |③--④|
口③口口 |⑤-⑥-|
71
⑤③④口 |①-②-|
口口口口 |③---|
⑥①②口 |④---|
④④③⑤ |⑤-⑥-|
72
口④③① |①---|
②②口③ |②---|
④①②口 |③---|
口③④口 |④---|
73
④⑫⑪② |①-②-|
③⑥①⑤ |③-④-|
⑩①⑨③ |⑤⑥⑦⑧|
②⑧⑦④ |⑨⑩⑪⑫|
74
口口口口 |①--②|
⑤⑧①口 |-③④-|
口⑦口④ |⑤--⑥|
②口⑥③ |-⑦⑧-|
75
①口①② |①---|
口口⑧③ |②③④⑤|
口口⑦④ |⑥---|
口⑥口⑤ |⑦-⑧-|
76
口①③⑤ |①---|
①②④口 |②-③-|
③④口口 |----|
⑤口口口 |④-⑤-|
77
口口口口 |----|
口口口口 |----|
口口①口 |①---|
口口口② |②---|
78
④③①口 |①---|
口口②① |②-③-|
口口口③ |----|
口口口④ |④---|
79
口口口④ |①---|
口口③口 |②--③|
口②口口 |----|
①口口口 |④---|
80
①⑩⑧⑪ |①-②③|
口⑨口口 |④-⑤⑥|
⑤⑦④② |⑦-⑧⑨|
口⑥③口 |⑩-⑪-|
81
①口口口 |①-②③|
口⑨⑩⑧ |④-⑤⑥|
⑤⑦④② |⑦-⑧-|
口⑥③口 |⑨-⑩-|
82
①口②口 |①-②-|
口口⑦口 |③-④-|
③⑥④⑤ |⑤---|
口⑤口口 |⑥-⑦-|
83
口②⑤① |①-②-|
⑤④口③ |③-④-|
口口口口 |⑤---|
⑦口口⑥ |⑥-⑦-|
84
①⑩⑧⑪ |①-②③|
口⑨口口 |④-⑤⑥|
⑤⑦④② |⑦-⑧⑨|
口⑥③口 |⑩-⑪-|
85
①口口口 |①-②③|
口⑨⑩⑧ |④-⑤⑥|
⑤⑦④② |⑦-⑧-|
口⑥③口 |⑨-⑩-|
86
①⑩⑧⑪ |①-②③|
口⑨口口 |④-⑤⑥|
⑤⑦④② |⑦-⑧⑨|
口⑥③口 |⑩-⑪-|
87
①口口口 |①-②③|
口口口口 |④-⑤⑥|
⑤口④②
口⑥③口

⑪口⑩⑫
⑨⑬口⑧
口⑦口口 |⑦-⑧⑨|
口口口口 |⑩⑪⑫⑬|
88
⑤⑤口口 |①---|
④口②口 |②-③-|
口③口口 |--④-|
口口①① |--⑤-|
89
口口口口 |--①-|
口①口③ |--②-|
口口②口 |--③-|
口口口口 |----|
90
②②③① |①---|
③口①口 |--②-|
口口口③ |----|
①③②口 |③---|

accuracy: 100%
最終更新:2022年04月07日 16:08