アットウィキロゴ
Brawl
東京アクティブNEETs

BASIC

Level: 4
BPM: 145
Notes: 234

1
口口口口 |----|
口口口口 |----|
口口口口 |----|
口口口口 |----|
2
口口口口 |----|
口口口口 |----|
口口口口 |----|
口口口口 |----|
3
口口口口 |-①--|
口口口口 |---②|
②①①② |----|
口③③口 |-③--|
4
④④④④ |-①--|
口口口口 |-②--|
①③③② |-③--|
口口口口 |---④|
5
口口口口 |----|
口口口口 |----|
口口口口 |----|
口口口口 |----|
6
口口口口 |----|
口口口口 |----|
口口口口 |----|
口口口口 |----|
7
口口口口 |①---|
①口口口 |---②|
口②②口 |----|
口口口口 |----|
8
口②②口 |①---|
口口口① |---②|
口口口口 |----|
口口口口 |----|
9
口口口口 |①---|
①口口口 |---②|
口②②口 |----|
口口口口 |----|
10
②口口② |①---|
口口口① |---②|
口口口口 |----|
口口口口 |----|
11
口口口口 |①---|
口口口① |---②|
口②②口 |----|
口口口口 |----|
12
口②②口 |①---|
①口口口 |---②|
口口口口 |----|
口口口口 |----|
13
①口口① |①---|
口口口口 |---②|
②口口② |----|
口口口口 |----|
14
口口口口 |①---|
①①②② |---②|
口口口口 |----|
口口口口 |----|
15
口口口口 |①---|
口口口口 |----|
口口口口 |----|
①口口口 |----|
16
口口口口 |①---|
口口口口 |----|
口口口口 |----|
口①口口 |----|
17
口口口口 |①---|
口口口口 |----|
口口口口 |----|
口口①口 |----|
18
口口口口 |①---|
口口口口 |----|
口口口口 |----|
口口口① |----|
19
口口口口 |①---|
口口口口 |----|
口口口口 |②---|
口口②① |----|
20
口口口口 |①---|
口口口口 |----|
口口口口 |②---|
②①口口 |----|
21
口口口口 |①---|
口口口口 |----|
①②口口 |②---|
口口口口 |----|
22
口口口口 |①---|
口口口口 |----|
口口①② |②---|
口口口口 |----|
23
口口口口 |①---|
口口口口 |----|
口口口② |②---|
口①①口 |----|
24
口口口口 |①---|
口①①口 |----|
口口口口 |----|
口口口口 |----|
25
口口口口 |①---|
口口口口 |----|
口口口② |②---|
口①①口 |----|
26
口口口口 |①---|
口口口口 |----|
口口口口 |----|
①口口① |----|
27
口口口口 |①---|
口口口口 |----|
②口口口 |②---|
口①①口 |----|
28
口口口口 |①---|
口①①口 |----|
口口口口 |----|
口口口口 |----|
29
①口口① |①---|
口②口口 |----|
口口口口 |②---|
口口口口 |----|
30
①①①① |①---|
口口口口 |----|
口口口口 |----|
口口口口 |----|
31
口口口口 |①---|
①②口口 |②---|
口口③口 |③---|
口口口口 |----|
32
口口口口 |①---|
口口②① |②---|
口③口口 |③---|
口口口口 |----|
33
口口口口 |①---|
①②口口 |②---|
口口③口 |③---|
口口口口 |----|
34
口③口口 |①---|
口口②① |②---|
口口口口 |③---|
口口口口 |----|
35
口口口口 |①---|
口口②① |②---|
口③口口 |③---|
口口口口 |----|
36
口口口口 |①---|
①②口口 |②---|
口口③口 |③---|
口口口口 |----|
37
口口口口 |①---|
口口②① |②---|
口③口口 |③---|
口口口口 |----|
38
口口③口 |①---|
①②口口 |②---|
口口口口 |③---|
口口口口 |----|
39
口口口口 |①---|
口口口口 |----|
②口口② |②---|
口①①口 |----|
40
口口口口 |①---|
②①①② |----|
口口口口 |②---|
口口口口 |----|
41
口口口口 |①---|
口口口口 |----|
②口口② |②---|
口①①口 |----|
42
口口口口 |①---|
口口口口 |----|
口②②口 |②---|
①口口① |----|
43
口口口口 |①---|
口口口口 |----|
②口口② |②---|
口①①口 |----|
44
口口口口 |①---|
口①①口 |----|
口②②口 |②---|
口口口口 |----|
45
①口口① |①---|
口②②口 |----|
口口口口 |②---|
口口口口 |----|
46
①①①① |①---|
口口口口 |----|
口口口口 |----|
口口口口 |----|
47
口口口口 |①---|
口口①② |②---|
口口③口 |③---|
口④口口 |④---|
48
口口口口 |①---|
②①口口 |②---|
口③口口 |③---|
口口④口 |④---|
49
口口口口 |①---|
口口口口 |----|
①口口① |②---|
②口口② |----|
50
口口口口 |①---|
口口口口 |----|
口①①口 |----|
口口口口 |----|
51
口口口口 |①---|
口口①② |②---|
口口③口 |③---|
口④口口 |④---|
52
口口口口 |①---|
②①口口 |②---|
口③口口 |③---|
口口④口 |④---|
53
口口口口 |①---|
②口口② |----|
①口口① |②---|
口口口口 |----|
54
①口口① |①---|
口②②口 |----|
口口口口 |②---|
口口口口 |----|
55
口口口口 |--①-|
①②③① |----|
口口口口 |②---|
口口口口 |③---|
56
口①①口 |①---|
口口口口 |---②|
口②②口 |----|
口口口口 |----|
57
口②口④ |①---|
①口③口 |②---|
口口口口 |③---|
口口口口 |④---|
58
②口口② |①---|
口口口口 |---②|
口①①口 |----|
口口口口 |----|
59
口口口口 |--①-|
①③②① |----|
口口口口 |②---|
口口口口 |③---|
60
①①口口 |--①---|
口口口口 |----②-|
口口②② |----|
口口口口 |----|
61
④口口④ |①---|
口③③口 |--②-|
口②②口 |----|
口①①口 |③--④|
62
口口口口 |----|
口口口口 |----|
口口口口 |----|
口口口口 |----|
63
①口口口 |①---|
①口口口 |---②|
口②②口 |----|
口口口口 |----|
64
口②②① |①---|
口口口① |---②|
口口口口 |----|
口口口口 |----|
65
①口口口 |①---|
①口口口 |---②|
口②②口 |----|
口口口口 |----|
66
②口②① |①---|
口口口① |---②|
口口口口 |----|
口口口口 |----|
67
口口口口 |①---|
口口口① |---②|
口②②① |----|
口口口口 |----|
68
口②口② |①---|
①口口口 |---②|
①口口口 |----|
口口口口 |----|
69
①口口口 |①---|
口②口口 |②---|
口口③口 |③---|
口口口④ |④---|
70
口口口口 |-①--|
口②①口 |---②|
口①②口 |----|
口③③口 |-③--|
71
口③口口 |-①--|
①口④② |-②--|
①⑤口② |-③-④|
口口⑥口 |-⑤-⑥|

accuracy: 100%
最終更新:2022年04月07日 16:09