アットウィキロゴ
Brawl
東京アクティブNEETs

ADVANCED

Level: 6
BPM: 145
Notes: 472

1
口口口口 |----|
口口口口 |----|
口口口口 |----|
口口口口 |----|
2
口口口口 |----|
口口口口 |----|
口口口口 |----|
口口口口 |----|
3
①口口② |-①--|
①口口② |---②|
口口口口 |----|
③口口③ |-③--|
4
⑦口口⑧ |-①-②|
口⑤⑥口 |-③-④|
③口口④ |-⑤-⑥|
口①②口 |-⑦-⑧|
5
口口口口 |----|
口口口口 |----|
口口口口 |----|
口口口口 |----|
6
口口口口 |----|
口口口口 |----|
口口口口 |----|
口口口口 |----|
7
口②②口 |①---|
①口口口 |②--③|
①③③口 |----|
口口口口 |----|
8
口口口口 |①---|
口③③① |②--③|
口口口① |----|
口②②口 |----|
9
口②②口 |①---|
①口口口 |②--③|
①③③口 |----|
口口口口 |----|
10
②口口② |①---|
口口口① |②--③|
口③③① |----|
口口口口 |----|
11
口②②口 |①---|
①口口口 |②--③|
①③③口 |----|
口口口口 |----|
12
口口口口 |①---|
口③③① |②--③|
口口口① |----|
口②②口 |----|
13
口口口口 |①-②-|
③口口④ |③-④-|
①⑦⑧② |⑤-⑥-|
口⑤⑥口 |⑦-⑧-|
14
口①②口 |①---|
①口口② |---②|
口口口口 |----|
口口口口 |----|
15
口口口口 |①---|
口③④⑤ |②---|
口口②口 |③--④|
口①口① |--⑤-|
16
口口口口 |①---|
⑤④③口 |②---|
口②口口 |③--④|
①口①口 |--⑤-|
17
口口口口 |①---|
口③④⑤ |②---|
口口②口 |③--④|
口①口① |--⑤-|
18
口口口口 |①---|
⑤④③口 |②---|
口②口口 |③--④|
①口①口 |--⑤-|
19
口口口⑤ |①---|
④③④③ |②---|
口口②口 |③--④|
口①口① |--⑤-|
20
⑤口口口 |①---|
③④③④ |②---|
口②口口 |③--④|
①口①口 |--⑤-|
21
口口口⑤ |①---|
④③④③ |②---|
口口②口 |③--④|
口①口① |--⑤-|
22
⑤口口口 |①---|
③④③④ |②---|
口②口口 |③--④|
①口①口 |--⑤-|
23
口口口口 |①---|
口口口口 |----|
口①①口
口口口口

口口⑤口
②④口口
②口③③ |②---|
口口口口 |③-④⑤|
24
口口口口 |----|
②口口① |----|
②口口① |①--②|
口口口口 |----|
25
口口口口 |①---|
口口口口 |----|
口①①口
口口口口

口口④口
口⑤口②
③③口② |②---|
口口口口 |③-④⑤|
26
口口口口 |----|
①口口② |----|
①口口② |①--②|
口口口口 |----|
27
口口口口 |①---|
口口口口 |----|
口①①口
口口口口

口口⑤口
②④口口
②口③③ |②---|
口口口口 |③-④⑤|
28
口口口口 |----|
②口口① |----|
②口口① |①--②|
口口口口 |----|
29
口①①口 |①---|
口口口口 |----|
口口口口
口口口口

口⑤④口
口口口②
③③口② |②---|
口口口口 |③-④⑤|
30
口口口口 |----|
①口口② |----|
①口口② |①--②|
口口口口 |----|
31
口口口口 |①---|
⑤④③口 |②---|
②口②口 |③--④|
口①①口 |--⑤-|
32
口口口口 |①---|
口③④⑤ |②---|
口②口② |③--④|
口①①口 |--⑤-|
33
口口口口 |①---|
⑤④③口 |②---|
②口②口 |③--④|
口①①口 |--⑤-|
34
口口口口 |①---|
口③④⑤ |②---|
口②口② |③--④|
口①①口 |--⑤-|
35
⑤口口口 |①---|
③④③④ |②---|
②口②口 |③--④|
①口①口 |--⑤-|
36
口口口⑤ |①---|
④③④③ |②---|
口②口② |③--④|
口①口① |--⑤-|
37
⑤口口口 |①---|
③④③④ |②---|
②口②口 |③--④|
①口①口 |--⑤-|
38
口口口⑤ |①---|
④③④③ |②---|
口②口② |③--④|
口①口① |--⑤-|
39
口②口口 |①---|
口口口口 |②---|
口①①口
口口口口

口口⑥口
口⑤口口
口口④④ |③---|
口③③口 |④-⑤⑥|
40
①口口口 |----|
口口口口 |①---|
口口口口 |②---|
②口口③ |③---|
41
口口②口 |①---|
口口口口 |②---|
口①①口
口口口口

口口⑤口
口⑥口口
④④口口 |③---|
口③③口 |④-⑤⑥|
42
口口口① |----|
口口口口 |①---|
口口口口 |②---|
③口口② |③---|
43
口②口口 |①---|
口口口口 |②---|
口①①口
口口口口

口口⑥口
口⑤口口
口口④④ |③---|
口③③口 |④-⑤⑥|
44
①口口口 |----|
口口口口 |①---|
口口口口 |②---|
②口口③ |③---|
45
口①①② |①---|
口口口口 |②---|
口口口口
口口口口

口⑥⑤口
口口口口
④④口口 |③---|
口口口③ |④-⑤⑥|
46
②口口① |----|
②口口① |①---|
口口口口 |②---|
口③③口 |③---|
47
②口口② |①---|
口④口口 |②--③|
③口⑤口 |---④|
①口口① |--⑤-|
48
口⑥口④ |①--②|
口③口⑤ |--③-|
口口口② |④--⑤|
口①口口 |--⑥-|
49
③口④② |①---|
口⑤①口 |②---|
口①⑥口 |③-④-|
口口口口 |⑤-⑥-|
50
口③④口 |①-②-|
③口口④ |----|
口口口② |③--④|
口①口② |----|
51
②口口② |①---|
口口④口 |②---|
口⑤口③ |③--④|
①口口① |--⑤-|
52
④⑥⑤口 |①--②|
⑥口③口 |--③-|
②口口口 |④--⑤|
口口①口 |--⑥-|
53
口口口口 |①---|
口口口① |②---|
口口①口
②口口口

⑥⑥口口
口口⑤⑤
④④口口 |③-④-|
口口口③ |⑤-⑥-|
54
③口口③ |①---|
口①口口 |②---|
口口①口 |③---|
④②②④ |④---|
55
口③口② |--①-|
①①①① |--②-|
口口口口 |③---|
口④④口 |④---|
56
口口②口 |①-②③|
①③口口 |-④-⑤|
口口口④ |----|
⑤⑤口口 |----|
57
②口⑤③ |-①--|
口②③⑤ |②-③-|
⑥④①口 |④--⑤|
⑥④①口 |--⑥-|
58
口④口⑤ |①-②-|
口口③⑤ |③④-⑤|
口口口① |----|
口②口口 |----|
59
口③口② |--①-|
①①①① |--②-|
口口口口 |③---|
口④④口 |④---|
60
①口口② |--①-②-|
③口口④ |③-④-⑤-|
⑤口口口 |----|
口⑥⑥口 |--⑥-|
61
②②口口 |①--②|
口口口口 |--③-|
③③①①
口口口口

口⑥④④
口口⑤口
口口口口 |-④--|
口⑦⑦口 |⑤⑥-⑦|
62
口口口口 |----|
①口口① |①---|
②口口② |②---|
③口口③ |③---|
63
口③②口 |①---|
①⑤④口 |②③④⑤|
口①口口 |----|
口口口口 |----|
64
口口①口 |①---|
口口口① |②③④⑤|
口④⑤口 |----|
口②③口 |----|
65
口③②口 |①---|
①⑤④口 |②③④⑤|
口①口口 |----|
口口口口 |----|
66
口口①口 |①---|
口口口① |②③④⑤|
②口口③ |----|
④口口⑤ |----|
67
口③②口 |①---|
①⑤④口 |②③④⑤|
口①口口 |----|
口口口口 |----|
68
口口①口 |①---|
口口口① |②③④⑤|
口④⑤口 |----|
口②③口 |----|
69
口口口口 |①-②-|
③口口④ |③-④-|
①⑦⑧② |⑤-⑥-|
口⑤⑥口 |⑦-⑧-|
70
①口口② |-①--|
②口口① |---②|
口口口口 |----|
③口口③ |-③--|
71
口口口口 |-①-②|
③口口④ |-③-④|
③②②④
口①①口

⑦⑥⑥⑦
口⑤⑤口
口⑧⑧口 |-⑤-⑥|
口⑧⑧口 |-⑦-⑧|

accuracy: 100%
最終更新:2022年04月07日 16:09