アットウィキロゴ
Brawl
東京アクティブNEETs

EXTREME

Level: 9.6
BPM: 145
Notes: 786

1
口口口口 |----|
口口口口 |----|
口口口口 |----|
口口口口 |----|
2
口口口口 |----|
口口口口 |----|
口口口口 |----|
口口口口 |----|
3
口④口口 |-①②③|
⑧口①⑤ |④--⑤|
口⑥⑨③ |⑥⑦⑧-|
⑩②⑪⑦ |-⑨⑩⑪|
4
口口口口 |①②-③|
口⑤②⑤ |-④-⑤|
①④口④
口③口③

口⑨⑨⑨
⑦口⑦口
⑧口⑧口 |-⑥-⑦|
⑥口⑥口 |-⑧-⑨|
5
口口口口 |----|
口口口口 |----|
口口口口 |----|
口口口口 |----|
6
③口口④ |①②-③|
口⑤⑥口 |④-⑤⑥|
口口口口
①口口②

⑪口口⑫
口口口口
口⑨⑩口 |⑦⑧-⑨|
口⑦⑧口 |⑩-⑪⑫|
7
口①口口 |①-②③|
①③④口 |④⑤⑥⑦|
⑤口⑥② |----|
⑨⑦口⑧ |--⑧⑨|
8
口口①⑦ |①-②③|
口⑥③① |④⑤⑥⑦|
②④口⑤ |----|
口口口口 |----|
9
口①口口 |①-②③|
①③④口 |④⑤⑥⑦|
⑤口⑥② |----|
⑨⑦口⑧ |--⑧⑨|
10
口口①口 |①-②③|
口⑥③① |④⑤⑥⑦|
②④口⑤ |----|
口口⑦口 |----|
11
口①口口 |①-②③|
①③④口 |④⑤⑥⑦|
⑤口⑥② |----|
⑨⑦口⑧ |--⑧⑨|
12
口口①⑦ |①-②③|
口⑥③① |④⑤⑥⑦|
②④口⑤ |----|
口口口口 |----|
13
口⑧③口 |①②③④|
②④口⑤ |⑤⑥⑦⑧|
口口①⑦
口⑥口口

口口口口
口⑭口口
⑫⑩⑬口 |--⑨⑩|
口口⑨⑪ |⑪⑫⑬⑭|
14
④④①① |①②③④|
②口⑦⑦ |-⑤⑥⑦|
口⑥口③
口口⑤口

口口口⑩
口口口口
⑧口口口 |---⑧|
⑨口口口 |⑨-⑩-|
15
⑧⑩口口 |①-②③|
④⑤⑥⑦ |④⑤⑥⑦|
口口③② |⑧--⑨|
⑨①①口 |--⑩-|
16
口口⑩⑧ |①-②③|
⑦⑥⑤④ |④⑤⑥⑦|
②③口口 |⑧--⑨|
口①①⑨ |--⑩-|
17
⑧⑩口口 |①-②③|
④⑤⑥⑦ |④⑤⑥⑦|
口口③② |⑧--⑨|
⑨①①口 |--⑩-|
18
⑩口口⑧ |①-②③|
⑦⑥⑤④ |④⑤⑥⑦|
②③口口 |⑧--⑨|
⑨①①口 |--⑩-|
19
⑧⑫口⑪ |①-②③|
④⑤⑥⑦ |④⑤⑥⑦|
⑧口③② |⑧-⑨⑩|
⑩①①⑨ |-⑪⑫-|
20
⑪口⑫⑧ |①-②③|
⑦⑥⑤④ |④⑤⑥⑦|
②③口⑧ |⑧-⑨⑩|
⑨①①⑩ |-⑪⑫-|
21
⑧⑫口⑪ |①-②③|
④⑤⑥⑦ |④⑤⑥⑦|
⑧口③② |⑧-⑨⑩|
⑩①①⑨ |-⑪⑫-|
22
口口口口 |①-②③|
⑦⑥⑤④ |④⑤⑥⑦|
②③口口
口①①口

⑩口⑩⑫
口口口口
口⑪⑧口 |⑧⑨-⑩|
⑨口口口 |-⑪⑫-|
23
⑦⑥口口 |①--②|
④①口② |----|
口⑤口口 |③--④|
③①口① |⑤-⑥⑦|
24
④口口② |①--②|
口口口口 |----|
③口口① |③--④|
口口口口 |----|
25
口口口口 |①--②|
口①口② |----|
口口口口
口①口①

口⑥口口
④⑦口口
口⑤口口 |③--④|
③口口口 |⑤-⑥⑦|
26
④口口② |①--②|
口口口口 |----|
③口口① |③--④|
口口口口 |----|
27
⑦⑥口口 |①--②|
④①口② |----|
口⑤口口 |③--④|
③①口① |⑤-⑥⑦|
28
④口口② |①--②|
口口口口 |----|
③口口① |③--④|
口口口口 |----|
29
口①口口 |①--②|
口口口② |----|
口口口口
口①口①

⑦⑥口口
④⑦口口
口⑤口口 |③--④|
③口口口 |⑤-⑥⑦|
30
口口口② |①--②|
口口口口 |----|
口口口①
口口口口

口口口口
③口口④
⑤口口⑥ |③④⑤⑥|
⑦⑦口口 |⑦---|
31
⑨口①⑩ |①-②③|
②③⑤④ |④⑤⑥⑦|
口⑥口口 |⑧--⑨|
⑧口⑦口 |--⑩-|
32
⑩①口⑨ |①-②③|
④⑤③② |④⑤⑥⑦|
口口⑥口 |⑧--⑨|
口⑦口⑧ |--⑩-|
33
⑨口①⑩ |①-②③|
②③⑤④ |④⑤⑥⑦|
口⑥口口 |⑧--⑨|
⑧口⑦口 |--⑩-|
34
口①口口 |①-②③|
④⑤③② |④⑤⑥⑦|
口口⑥口
口⑦口口

口⑫口⑫
口口口口
⑩⑪口口 |⑧⑨⑩⑪|
口口⑨⑧ |--⑫-|
35
⑩口①⑫ |①-②③|
②③⑤④ |④⑤⑥⑦|
⑪⑥口⑨ |⑧-⑨⑩|
⑧口⑦口 |-⑪⑫-|
36
⑫①口⑩ |①-②③|
④⑤③② |④⑤⑥⑦|
⑨口⑥⑪ |⑧-⑨⑩|
口⑦口⑧ |-⑪⑫-|
37
⑩口①⑫ |①-②③|
②③⑤④ |④⑤⑥⑦|
⑪⑥口⑨ |⑧-⑨⑩|
⑧口⑦口 |-⑪⑫-|
38
口①口口 |①-②③|
④⑤③② |④⑤⑥⑦|
口口⑥口
口⑦口口

口⑬口⑬
口口口⑫
⑩⑪口口 |⑧⑨⑩⑪|
口口⑨⑧ |⑫-⑬-|
39
③口口⑥ |①---|
②口①⑥ |②---|
④口⑤① |③---|
①④口④ |④-⑤⑥|
40
③口口口 |①---|
②口口口 |②---|
④口口口 |③---|
①口口口 |④---|
41
口口口口 |①---|
②口①口 |②---|
口口口①
①口口口

③口口⑤
口口⑥口
④口⑥口 |③---|
口④口④ |④-⑤⑥|
42
③口口口 |①---|
②口口口 |②---|
④口口口 |③---|
①口口口 |④---|
43
③口口⑥ |①---|
②口①⑥ |②---|
④口⑤① |③---|
①④口④ |④-⑤⑥|
44
③口口口 |①---|
②口口口 |②---|
④口口口 |③---|
①口口口 |④---|
45
口口①口 |①---|
②口口① |②---|
口口口口
①口口口

③口口⑥
口口④⑥
④口⑤⑤ |③---|
口口④口 |④-⑤⑥|
46
③口口口 |①---|
②④口口 |②---|
口口⑤口 |③④⑤⑥|
①⑦⑦⑥ |⑦---|
47
③口口口 |①-②-|
①口③② |③---|
口③口口
口口口口

口口⑤口
口⑤口⑥
④⑥口④ |④--⑤|
口④⑥⑤ |--⑥-|
48
口③口口 |①--②|
①口②口 |--③-|
③口①②
①②口③

⑤口口⑥
口⑤⑥④
口④⑤口 |④--⑤|
口⑥④口 |--⑥-|
49
⑤③④口 |①-②-|
口口口口 |③④-⑤|
①口口②
①口口①

口口口口
口⑦口⑦
口⑧⑥⑧ |-⑥⑦-|
口⑨口⑨ |⑧-⑨-|
50
④④⑥② |①-②③|
⑦⑧③⑥ |④---|
⑤口⑩⑨ |⑤--⑥|
①⑤①口 |⑦⑧⑨⑩|
51
②口口口 |①---|
口口②口 |②---|
口②口口
①口①口

口口④口
口④口⑤
③⑤口③ |③--④|
口③⑤④ |--⑤-|
52
口③口口 |①--②|
①口②口 |--③-|
③口①②
①②口③

⑤口⑤⑥
口⑤⑥④
口④口⑥ |④--⑤|
口口④口 |--⑥-|
53
口口口口 |①---|
①口口② |②---|
①口口口
口①②口

③口口⑥
⑥⑥⑤口
口③④⑤ |③-④-|
④⑤口④ |⑤-⑥-|
54
②①口口 |①-②-|
口口口① |③---|
①口口口
③口①③

口⑧④口
口⑨⑤口
口⑩⑥口 |④⑤⑥⑦|
口⑪⑦口 |⑧⑨⑩⑪|
55
③口③② |①-②-|
②口口① |--③-|
口口③②
口口口①

口⑤口口
⑧⑥口⑦
④⑦口口 |④-⑤⑥|
④口④⑦ |⑦-⑧-|
56
口口口② |①-②③|
口⑤③⑤ |-④-⑤|
⑤口⑤①
④①口口

口⑧⑦口
口口口口
口口口口 |⑥-⑦-|
口⑨⑥口 |⑧-⑨-|
57
④口口口 |①②--|
②④口④ |③-④-|
口②口③
③口③①

口⑥⑦⑧
口口口口
⑤⑨⑤口 |⑤-----⑥⑦|
⑨⑤⑨口 |⑧-⑨-|
58
①⑤⑤口 |①-②-|
④⑤⑤③ |③④-⑤|
③口口④
口②口②

⑦口口口
口口口口
口⑦口口 |--⑥-|
口口⑥口 |⑦---|
59
②口②① |--①-|
①口口口 |--②-|
口口②①
口口口口

口口口口
口③口口
口口口④ |③---|
③④③④ |④---|
60
口②口② |--①-②-|
①③①③ |③-④-⑤-|
④口④口
口⑤口⑤

口口⑧口
⑥⑦⑥口
口⑥口口 |----|
⑥口⑥口 |⑥-⑦⑧|
61
②口口① |①--②|
③口口口 |--③-|
口③口③
口②口②

口口⑥口
口④⑤④
④口口口 |-④--|
⑤⑦⑦⑦ |⑤⑥-⑦|
62
⑦⑦口口 |--①②|
⑥口口③ |③-④⑤|
②④①⑤ |⑥--⑦|
口⑧⑧口 |⑧---|
63
口口①口 |①-②③|
口④③① |④⑤⑥⑦|
②⑥口⑤ |----|
⑧⑦⑦⑨ |--⑧⑨|
64
⑦①口口 |①-②③|
①③⑥口 |④⑤⑥⑦|
⑤口④② |----|
口⑦口口 |----|
65
口口①口 |①-②③|
口④③① |④⑤⑥⑦|
②⑥口⑤ |----|
⑧⑦⑦⑨ |--⑧⑨|
66
⑦①口口 |①-②③|
①③⑥口 |④⑤⑥⑦|
⑤口④② |----|
口⑦口口 |----|
67
口口①口 |①-②③|
口④③① |④⑤⑥⑦|
②⑥口⑤ |----|
⑧⑦⑦⑨ |--⑧⑨|
68
⑦①口口 |①-②③|
①③⑥口 |④⑤⑥⑦|
⑤口④② |----|
口⑦口口 |----|
69
口③⑧口 |①②③④|
⑤口④② |⑤⑥⑦⑧|
⑦①口口
口口⑥口

口口口口
口口⑭口
口⑬⑩⑫ |--⑨⑩|
⑪⑨口口 |⑪⑫⑬⑭|
70
①②③④ |-①②③|
⑨⑩口口 |④--⑤|
口口⑪口 |⑥⑦⑧-|
⑧⑦⑥⑤ |-⑨⑩⑪|
71
⑤④⑤口 |①②-③|
⑤口④② |-④-⑤|
③②口①
④③③②

口⑨口⑥
口⑥⑨⑧
⑧⑦⑥⑦ |-⑥-⑦|
⑨⑧口⑦ |-⑧-⑨|

accuracy: 100%
最終更新:2022年04月07日 16:09