アットウィキロゴ
Floating Eternity
BEMANI Sound Team "Philosophy"

BASIC

Level: 3
BPM: 180
Notes: 152

1
口口口口 |(120)----|
口口口口 |----|
口口口口 |----|
口口口口
2
口口口口 |----|
口口口口 |----|
口口口口 |----|
口口口口
3
口口口口 |----|
口口口口 |----|
口口口口 |----|
口口口口
4
口口口口 |----|
口口口口 |----|
口口口口 |----|
口口口口
5
口口口口 |----|
口口口口 |----|
口口口口 |----|
口口口口
6
口口口口 |①---|
口①①口 |----|
口①①口 |----|
口口口口
7
口口口口 |----|
口口口口 |----|
口口口口 |----|
口口口口
8
口口口口 |----|
口口口口 |----|
口口口口 |----|
口口口口
9
口口口口 |----|
口口口口 |----|
口口口口 |----|
口口口口
10
口口口口 |①---|
①口口口 |----|
口口口口 |----|
口口口口
11
口口口口 |①---|
口口口口 |----|
①口口口 |----|
口口口口
12
口口口口 |①---|
口口口口 |----|
口口口口 |----|
①口口口
13
口口口口 |①---|
口口口口 |----|
口①①口 |----|
口口口口
14
口口口口 |----|
口口口口 |----|
口口口口 |----|
口口口口
15
口口口口 |①---|
口口口① |----|
口口口口 |----|
口口口口
16
口口口口 |①---|
口口口口 |----|
口口口① |----|
口口口口
17
口口口口 |①---|
口口口口 |----|
口口口口 |----|
口口口①
18
口口口口 |①---|
口口口口 |----|
口①①口 |----|
口口口口
19
口口口口 |----|
口口口口 |----|
口口口口 |----|
口口口口
20
①②口口 |----|
口口口口 |①---|
口口口口 |②---|
口口口口
21
口口①② |①---|
口口口③ |②---|
口口口口 |③---|
口口口口
22
口口口口 |①---|
③②①口 |②---|
口口口口 |③---|
口口口口
23
口口口口 |①---|
口口口口 |②---|
①②③口 |③---|
口口口口
24
口口口口 |①---|
口口口口 |②---|
口口口① |③---|
口口③②
25
口口口口 |①---|
口口口口 |②---|
③口口口 |③---|
②①口口
26
口口口口 |①---|
口口口口 |②---|
口①②③ |③---|
口口口口
27
口口口口 |----|
口口口口 |----|
口口口口 |----|
口口口口
28
口口口口 |①---|
②口口② |----|
口①①口 |②---|
口口口口
29
口口口口 |①---|
②口口② |----|
口①①口 |②---|
口口口口
30
口口口口 |①---|
口口口口 |----|
①②②① |②---|
口口口口
31
①①①① |①---|
口口口口 |----|
口口口口 |----|
口口口口
32
口口口口 |①---|
①①①① |----|
口口口口 |----|
口口口口
33
口口口口 |①---|
②口口② |----|
口①①口 |②---|
口口口口
34
口口口口 |①---|
②口口② |----|
口①①口 |②---|
口口口口
35
口口口口 |①---|
口口口口 |----|
①②②① |②---|
口口口口
36
①①①① |①---|
口口口口 |----|
口口口口 |----|
口口口口
37
口口口口 |①---|
①①①① |----|
口口口口 |----|
口口口口
38
口①口口 |①---|
口②口口 |----|
口口口口 |②---|
口口口口
39
口口口口 |----|
口口口口 |①---|
口①口口 |----|
口口口口
40
口口①口 |①---|
口口②口 |----|
口口口口 |②---|
口口口口
41
口口口口 |----|
口口口口 |①---|
口口①口 |----|
口口口口
42
口口口口 |①---|
①口口① |----|
口口口口 |----|
口口口口
43
口口口口 |①---|
口口口口 |----|
①口口① |----|
口口口口
44
口①口口 |①---|
口②口口 |----|
口口口口 |②---|
口口口口
45
口口口口 |----|
口口口口 |①---|
口①口口 |----|
口口口口
46
口口①口 |①---|
口口②口 |----|
口口口口 |②---|
口口口口
47
口口口口 |----|
口口口口 |①---|
口口①口 |----|
口口口口
48
①口口口 |①---|
②口口口 |----|
口口口口 |②---|
口口口口
49
口口口口 |----|
口口口口 |①---|
①口口口 |----|
口口口口
50
口口口① |①---|
口口口② |----|
口口口口 |②---|
口口口口
51
口口口口 |----|
口口口口 |①---|
口口口① |----|
口口口口
52
口口口口 |----|
口口口口 |----|
口口口口 |----|
口口口口
53
口口口口 |①---|
口口口口 |----|
口口口口 |----|
口①口口
54
口口口口 |①---|
口口口口 |----|
口口口口 |----|
口口①口
55
口口口口 |①---|
口口口口 |----|
口口口口 |----|
①口口口
56
口口口口 |①---|
口口口口 |----|
口口口口 |----|
口口口①
57
口口口口 |①---|
口口口口 |----|
口①口口 |----|
口口口口
58
口口口口 |①---|
口口口口 |----|
口口①口 |----|
口口口口
59
口①①口 |①---|
口口口口 |----|
口口口口 |----|
口口口口
60
口口口口 |①---|
口①①口 |----|
口口口口 |----|
口口口口
61
口口口口 |①---|
口口口口 |----|
口①①口 |----|
口口口口
62
口口口口 |①---|
口口口口 |----|
口口口口 |----|
口①①口
63
口口口口 |①---|
口口口口 |----|
口口口口 |----|
①口口①
64
口口口口 |①---|
口口口口 |----|
①口口① |----|
口口口口
65
口口口口 |----|
口口口口 |----|
口口口口 |----|
口口口口
66
口口口口 |①---|
①②③口 |②---|
口口口口 |③---|
口口口口
67
口口口口 |①---|
口口口① |②---|
口口③② |③---|
口口口口
68
①口口① |①---|
②口口② |----|
口口口口 |②---|
口口口口
69
口口口口 |----|
口口口口 |①---|
①口口① |----|
口口口口
70
口口口口 |①---|
口①②口 |②---|
口③口口 |③---|
口口口口
71
口口口口 |①---|
口口口口 |②---|
口口①口 |③---|
口②③口
72
口口口口 |①---|
①②③口 |②---|
口口口口 |③---|
口口口口
73
口口口口 |①---|
口口口① |②---|
口口③② |③---|
口口口口
74
①口口① |①---|
②口口② |----|
口口口口 |②---|
口口口口
75
口口口口 |----|
口口口口 |①---|
①口口① |----|
口口口口
76
口口口口 |①---|
口①②口 |②---|
口③口口 |③---|
口口口口
77
口口口口 |①---|
口口口口 |②---|
口口①口 |③---|
口②③口
78
口口口口 |①---|
①口口① |----|
口口口口 |----|
口口口口
79
口口口口 |----|
口口口口 |----|
口口口口 |----|
口口口口
80
口口口口 |----|
口口口口 |----|
口口口口 |----|
口口口口
81
口口口口 |----|
口口口口 |----|
口口口口 |----|
口口口口
82
口口口口 |----|
口口口口 |----|
口口口口 |----|
口口口口
83
口口口口 |----|
口口口口 |----|
口口口口 |----|
口口口口

accuracy: 100%
最終更新:2022年05月31日 03:43