アットウィキロゴ
Floating Eternity
BEMANI Sound Team "Philosophy"

ADVANCED

Level: 6
BPM: 180
Notes: 444

BPM 180 4分 = BPM 120 6分
BPM 180 8分 = BPM 120 12分
BPM 180 16分 = BPM 120 24分

1
口口口口 |(120)------|
口口口口 |------|
口口口口 |------|
口口口口
2
口口口口 |①-----|
①口口口 |------|
口口口口 |------|
口口口口
3
口口口口 |①-----|
口口口① |------|
口口口口 |------|
口口口口
4
口口口口 |①-----|
口口口口 |------|
①口口口 |------|
口口口口
5
口口口口 |①-----|
口口口口 |------|
口口口① |------|
口口口口
6
口口口口 |①---②-|
③⑤口口 |③---④-|
②④⑥口 |⑤---⑥-|
口①①口
7
口口口口 |①---②-|
⑤口①③ |③---④-|
④⑥口② |⑤---⑥-|
口口口口
8
口口口口 |①---②-|
口①③⑤ |③---④-|
⑥口②④ |⑤---⑥-|
口口口口
9
口口口口 |①---②-|
①③⑤口 |③---④-|
口②④口 |⑤-----|
口口口口
10
③口口① |①---②-|
②口口⑤ |③-----|
口④④口 |④---⑤-|
口口口口
11
③口口① |①---②-|
②口口口 |③---④-|
口口⑤口 |⑤-----|
口④口口
12
口口口① |①---②-|
口口口口 |③---④-|
口③口口
口④②口

⑥口口⑥
口口口口
口口⑤口
口口口口 |⑤---⑥-|
13
口口口口 |①-----|
①口口① |------|
口口口口 |------|
口口口口
14
口口口口 |①-----|
口口口口 |------|
口①①口 |------|
口口口口
15
③口口① |①---②-|
②口口⑤ |③-----|
口④④口 |④---⑤-|
口口口口
16
③口口① |①---②-|
②口口口 |③---④-|
口口⑤口 |⑤-----|
口④口口
17
口口口① |①---②-|
口口口口 |③---④-|
口③口口
口④②口

⑥口口⑥
口口口口
口口⑤口
口口口口 |⑤---⑥-|
18
口口口口 |①-----|
①口口① |------|
口口口口 |------|
口口口口
19
口口口口 |①-----|
口口口口 |------|
口①①口 |------|
口口口口
20
口口口口 |------|
口口口口 |①-----|
口②口口 |②-----|
①口口口
21
口口口② |①-----|
口口①口 |②-----|
③口口③ |③-----|
口口口口
22
口口口口 |------|
口口口口 |①-----|
口口②口 |②-----|
口口口①
23
②口口口 |①-----|
口①口口 |②-----|
口口口口
口口口口

口口口口
口⑤④③
口口口口
口口口口 |③-④-⑤-|
24
口口口口 |①-----|
①口口口 |②-----|
口③口口 |③-----|
②口口口
25
口口口② |①-----|
口口①口 |②-----|
③口口③ |③-----|
口口口口
26
口口口口 |------|
口④③② |①-----|
口口口口 |②-③-④-|
口口口①
27
口口口口 |①-----|
①口口口 |------|
口口口口 |------|
口口口口
28
③⑤③⑤ |①---②-|
口口口口 |③---④-|
②①①④ |⑤-----|
口口口口
29
③④③④ |①---②-|
口口口口 |③---④-|
②①①口
口口口口

口口口口
口口⑤口
口⑥口口
口口⑦口 |⑤-⑥-⑦-|
30
④⑥④⑥ |①-②-③-|
口③口⑦ |④---⑤-|
⑧⑤②口 |⑥-⑦-⑧-|
口①口口
31
口口口口 |①---②-|
⑤④口口 |③---④-|
口口②③ |⑤-----|
口口口①
32
①口口① |①---②-|
⑤④口口 |③---④-|
口口②③ |⑤-----|
口口口口
33
③⑤③⑤ |①---②-|
口口口口 |③---④-|
②①①④ |⑤-----|
口口口口
34
③④③④ |①---②-|
口口口口 |③---④-|
②①①口
口口口口

口口口口
口口⑤口
口⑥口口
口口⑦口 |⑤-⑥-⑦-|
35
④⑥④⑥ |①-②-③-|
口③口⑦ |④---⑤-|
⑧⑤②口 |⑥-⑦-⑧-|
口①口口
36
口口口口 |①---②-|
口口口口 |③---④-|
口④⑤口 |⑤-----|
口②③①
37
①口口① |①---②-|
口口口口 |③---④-|
口④⑤口 |⑤-----|
口②③口
38
①口口① |①-----|
②口口② |②-----|
③口口③ |③---④-|
口④口口
39
口口口口 |①---②-|
口④⑤口 |③---④-|
口③②口 |⑤-----|
口口①口
40
①口口① |①-----|
②口口② |②-----|
③口口③ |③---④-|
口④口口
41
口口口口 |①---②-|
口④⑤口 |③---④-|
口③②口 |⑤-----|
口口①口
42
①口口① |①-----|
口口③口 |②-----|
口②口口 |③-----|
口口口口
43
口口口口 |①-----|
口①口口 |②-----|
口③②口 |③-----|
口口口口
44
①口口① |①-----|
②口口② |②-----|
③口口③ |③-----|
口口口口
45
口①⑧口 |①-②-③-|
口②⑦口 |④-⑤-⑥-|
口③⑥口 |⑦-⑧---|
口④⑤口
46
①口口① |①-----|
②口口② |②-----|
③口口③ |③-----|
口口口口
47
口口口口 |①-②-③-|
口③④口 |④-⑤-⑥-|
口②⑤口 |------|
口①⑥口
48
①口口① |①-----|
②口口② |②-----|
③口口③ |③-----|
口口口口
49
⑨⑦⑧口 |①-②-③-|
口⑤⑥口 |④-⑤-⑥-|
口③④口 |⑦-⑧-⑨-|
口①②口
50
口口口① |①-②-③-|
②口口③ |④-⑤-⑥-|
④口口⑤ |⑦-⑧-⑨-|
⑥⑧⑨⑦
51
口口口口 |①-----|
口口口口 |------|
口①口口 |------|
口口口口
52
口口口口 |------|
口口口口 |------|
口口口口 |------|
口口口口
53
口口口口 |①-----|
口口口口 |②-----|
口①②③ |③-----|
口口口口
54
口口口口 |①-----|
③②①口 |②-----|
口口口口 |③-----|
口口口口
55
口口口口 |①-----|
口口口口 |②-----|
口①②③ |③-----|
口口口口
56
口①口口 |①-----|
口口②口 |②-----|
口③口口 |③-----|
口口口口
57
口口口口 |①-----|
口口口口 |②-----|
口口口口 |③-----|
③②①口
58
口口口口 |①-----|
口口口口 |②-----|
口①②③ |③-----|
口口口口
59
①①①① |①-----|
口口②③ |②-----|
口口口口 |③-----|
口口口口
60
口口①口 |①-----|
口口口口 |②-----|
③②①口 |③-----|
口口口口
61
口口口口 |①-----|
口①口口 |②-----|
口口口口 |③-----|
口①②③
62
口⑥③口 |①-②-③-|
口②⑤⑨ |④-⑤-⑥-|
①口⑧④ |⑦-⑧-⑨-|
口⑦口口
63
①口口口 |①-----|
口口口口 |②-----|
①②③口 |③-----|
口口口口
64
口口口口 |①-----|
口口口① |②-----|
口口口口 |③-----|
口③②①
65
口口口口 |------|
口口口口 |------|
口口口口 |------|
口口口口
66
③口⑥② |①---②-|
口口⑥口 |③---④-|
③⑤④② |⑤---⑥-|
口①①口
67
⑧①口⑧ |①---②-|
⑦①口② |③-④-⑤-|
口⑥③口 |⑥-⑦-⑧-|
口④⑤口
68
口③③口 |①---②-|
口②②口 |③---④-|
①⑤⑤① |⑤-----|
口④④口
69
①⑦③⑤ |①-②-③-|
⑧②⑥④ |④-⑤-⑥-|
口口口口 |⑦-⑧---|
口口口口
70
③口口口 |①---②-|
口④口口 |--③-④-|
②口⑤② |⑤-⑥---|
口①①⑥
71
口口口③ |①---②-|
口口④口 |--③-④-|
②⑤口② |⑤-⑥---|
⑥①①口
72
③口⑥② |①---②-|
口口⑥口 |③---④-|
③⑤④② |⑤---⑥-|
口①①口
73
⑧①口⑧ |①---②-|
⑦①口② |③-④-⑤-|
口⑥③口 |⑥-⑦-⑧-|
口④⑤口
74
口③③口 |①---②-|
口②②口 |③---④-|
①⑤⑤① |⑤-----|
口④④口
75
①⑦③⑤ |①-②-③-|
⑧②⑥④ |④-⑤-⑥-|
口口口口 |⑦-⑧---|
口口口口
76
③口口口 |①---②-|
口④口口 |--③-④-|
②口⑤② |⑤-⑥---|
口①①⑥
77
口②①③ |①-----|
②口③① |②-----|
口口口口 |③-----|
口口口口
78
①口口口 |①-----|
口①口口 |②-③-④-|
口④口口
口②③口

口口口口
口⑥口口
口口⑤口
口口口口 |⑤-⑥---|
79
②⑤⑤② |①---②-|
口口口口 |--③---|
④③口① |④---⑤-|
口口口口
80
④口口④ |--①---|
口口口口 |②---③-|
口③①② |--④---|
口口口口
81
⑤②②⑤ |①---②-|
口口口口 |--③---|
④③①口 |④---⑤-|
口口口口
82
口③③口 |--①---|
口口口口 |②---③-|
口④①② |--④---|
口口口口
83
口口口口 |①-----|
口口口口 |------|
①口口口 |------|
口口口口

accuracy: 100%
最終更新:2022年05月31日 04:24