アットウィキロゴ
Floating Eternity
BEMANI Sound Team "Philosophy"

EXTREME

Level: 10.2
BPM: 180
Notes: 874

BPM 180 4分 = BPM 120 6分
BPM 180 8分 = BPM 120 12分
BPM 180 16分 = BPM 120 24分

1
口口口口 |(120)------|
口口口口 |------|
口口口口 |------|
口口口口
2
⑧口口② |①-②-③④|
⑦③④⑤ |⑤-⑥-⑦-|
⑥⑩⑨① |⑧-⑨⑩⑪⑫|
口⑫⑪口
3
⑧口口② |①-②-③④|
⑦③④⑤ |⑤-⑥-⑦-|
⑥⑩⑨口 |⑧-⑨⑩⑪⑫|
①⑫⑪口
4
⑦口口① |--①-②③|
⑥②③④ |④-⑤-⑥-|
⑤⑨⑧口 |⑦-⑧⑨⑩⑪|
口⑪⑩口
5
⑧口口② |①-②-③④|
⑦③④⑤ |⑤-⑥-⑦-|
⑥⑩⑨口 |⑧-⑨⑩⑪⑫|
①⑫⑪口
6
⑧口口② |①-②-③④|
⑦③④⑤ |⑤-⑥-⑦-|
⑥⑩⑨① |⑧-⑨⑩⑪⑫|
口⑫⑪口
7
⑧口口② |①-②-③④|
⑦③④⑤ |⑤-⑥-⑦-|
⑥⑩⑨口 |⑧-⑨⑩⑪⑫|
①⑫⑪口
8
⑦口口① |--①-②③|
⑥②③④ |④-⑤-⑥-|
⑤⑨⑧口 |⑦-⑧⑨⑩⑪|
口⑪⑩口
9
⑧口口② |①-②-③④|
⑦③④⑤ |⑤-⑥-⑦-|
⑥⑩⑨口 |⑧-⑨⑩⑪⑫|
①⑫⑪口
10
④口口① |①---②-|
口③③口 |③---④-|
⑤口⑥⑦ |⑤--⑥⑦-|
口口口②
11
口①①口 |①---②③|
④③②口 |④-⑤-⑥-|
口口口口
口⑤口口

口口⑨⑦
口口口口
口口口⑧
口口⑥口 |⑦-⑧-⑨-|
12
⑤口口口 |①-②③④-|
口②③④ |⑤-⑥-⑦-|
⑥①①口
口口口口

口⑦口口
口⑪⑫口
口口⑨⑩
口⑧⑧口 |⑧-⑨⑩⑪⑫|
13
口③⑤口 |①---②-|
口口口① |③---④-|
②⑥⑦④ |⑤-⑥⑦⑧⑨|
口⑧⑨口
14
口②④口 |----①-|
口口口口 |②---③-|
①⑤⑥③ |④-⑤⑥⑦⑧|
口⑦⑧口
15
④口口① |①---②-|
口③③口 |③---④-|
⑤口⑥⑦ |⑤--⑥⑦-|
口口口②
16
口①①口 |①---②③|
④③②口 |④-⑤-⑥-|
口口口口
口⑤口口

口口⑨⑦
口口口口
⑥口口⑧
口口口口 |⑦-⑧-⑨-|
17
⑤口口口 |①-②③④-|
口②③④ |⑤-⑥-⑦-|
口①①口
⑥口口口

口⑦口口
口⑪⑫口
口口⑨⑩
口⑧⑧口 |⑧-⑨⑩⑪⑫|
18
口③⑤口 |①---②-|
口口口① |③---④-|
②⑥⑦④ |⑤-⑥⑦⑧⑨|
口⑧⑨口
19
口②④口 |----①-|
口口口口 |②---③-|
①⑤⑥③ |④-⑤⑥⑦⑧|
口⑦⑧口
20
③①③① |------|
口口口口 |①---②-|
口④②口 |③---④-|
口口口口
21
口⑤口⑤ |①---②-|
①③③① |③---④-|
口口⑥口 |⑤---⑥-|
口④②口
22
⑤⑦⑤⑦ |①②③④--|
①②③④ |⑤---⑥-|
口⑥口口 |⑦---⑧-|
口口⑧口
23
口口口口 |①---②-|
①③③① |③---④-|
口口口口
口②口口

⑤口口⑨
⑥口口⑩
⑦口④⑪
⑧口口⑫ |⑤⑥⑦⑧⑨⑩⑪⑫----|
24
③③①口 |------|
口口①口 |①---②-|
口②④口 |③---④-|
口口口口
25
口⑤⑤① |①---②-|
③⑦口① |③---④-|
③⑥口⑧ |⑤--⑥⑦⑧|
口②④口
26
口口口口 |①②③④⑤-|
③口⑤① |⑥--⑦--|
②口④口
口口⑥口

⑫⑦口⑧
⑬口口⑨
⑭口口⑩
⑮口口⑪ |⑧⑨⑩⑪⑫⑬⑭⑮----|
27
口⑧①⑨ |①②③④⑤⑥|
⑩②⑦口 |⑦⑧⑨⑩⑪⑫|
口⑥③⑪ |------|
⑫④⑤口
28
①③①③ |①---②-|
⑤口③⑤ |③---④-|
⑦口口口 |⑤--⑥⑦-|
⑥②②④
29
①⑥①⑥ |①---②③|
⑤②口⑨ |④-⑤-⑥-|
口⑧③⑦ |⑦-⑧-⑨-|
⑧④⑦⑨
30
①⑤①口 |①-②③④-|
⑤①②口 |⑤-⑥-⑦-|
口口③⑥
口④⑥口

⑩口⑨⑧
口⑫⑪⑧
⑦⑦口口
口口口口 |⑧-⑨⑩⑪⑫|
31
口②口口 |①-----|
口口口③ |②---③-|
口④①② |--④-⑤-|
口③⑤口
32
口③①③ |①---②-|
①口口⑤ |③---④-|
⑤④②口 |--⑤---|
口口口④
33
①③①③ |①---②-|
⑤口③⑤ |③---④-|
⑦口口口 |⑤--⑥⑦-|
⑥②②④
34
①⑥①⑥ |①---②③|
⑤②口⑨ |④-⑤-⑥-|
口⑧③⑦ |⑦-⑧-⑨-|
⑧④⑦⑨
35
①口口④ |①-②-③-|
口①④口 |④-⑤-⑥-|
③口②口
口③⑤口

口口口口
⑥⑩口⑪
口⑧口⑨
⑦口口⑦ |⑦-⑧⑨⑩⑪|
36
③①①③ |①---②-|
口口口口 |③---④-|
口④口④ |--⑤---|
⑤②②⑤
37
口⑨②口 |①②③④⑤⑥|
⑦③口⑥ |⑦⑧⑨⑩⑪⑫|
①口⑧口
口⑤④口

⑬口⑯⑫
口⑰⑩口
⑮⑪口口
口口⑱⑭ |⑬⑭⑮⑯⑰⑱|
38
口口口② |①-----|
口④口口 |②-----|
口口口口 |③---④-|
口①口③
39
口口口口 |①---②-|
口口①口 |③---④-|
口②③口 |⑤-⑥-⑦-|
⑥④⑤⑦
40
口口口② |①-----|
①口口口 |②-----|
口口口口 |③---④-|
口④口③
41
④口口口 |①-②③④-|
③口口口 |⑤-⑥⑦⑧-|
②⑤口⑥
口口①口

口口口⑧
⑬口⑪⑦
⑫口⑩口
口⑨口口 |⑨-⑩⑪⑫⑬|
42
①口②口 |①-----|
口③口② |②-----|
③口口口 |③-----|
口口口口
43
口口③口 |①-----|
②口口③ |②-----|
口②口① |③-----|
口口①口
44
口①口口 |①---②-|
口口口口 |③---④-|
口③口口
口②口口

⑥⑦⑧⑨
口口口⑤
口口口口
口口口④ |⑤-⑥⑦⑧⑨|
45
⑬口口口 |①②③④⑤⑥|
⑨⑩⑪⑫ |⑦⑧⑨⑩⑪⑫|
①②③④ |⑬-----|
⑤⑥⑦⑧
46
口口①口 |①---②-|
口口口口 |③---④-|
口口③口
口口②口

⑨⑧⑦⑥
⑤口口口
口口口口
④口口口 |⑤-⑥⑦⑧⑨|
47
口口口⑬ |①②③④⑤⑥|
⑫⑪⑩⑨ |⑦⑧⑨⑩⑪⑫|
④③②① |⑬-----|
⑧⑦⑥⑤
48
①口⑨⑤ |①---②-|
口口⑧口 |③---④-|
④⑦口口 |⑤-⑥⑦⑧⑨|
②⑥③口
49
②④口口 |①②③④⑤⑥|
①③口口 |⑦⑧⑨⑩⑪⑫|
口口⑧⑥
⑨口⑦⑤

⑱口⑯⑭
⑰口⑮⑬
⑩⑫口口
口⑪口口 |⑬⑭⑮⑯⑰⑱|
50
口②口口 |①②③④⑤⑥|
口①口口 |⑦⑧⑨⑩⑪⑫|
⑧口⑥④
⑦⑨⑤③

⑯⑱⑭⑫
⑮⑰⑬⑪
口⑩口口
口口口口 |⑬⑭⑮⑯⑰⑱|
51
口口口② |①-----|
口口口③ |②③④⑤⑥⑦|
口口①④
口口口口

⑥口⑩口
⑦口⑪口
⑧口⑫口
⑨口⑬⑤ |⑧⑨⑩⑪⑫⑬|
52
⑨①口⑤ |①②③④⑤⑥|
⑩②口⑥ |⑦⑧⑨⑩⑪⑫|
⑪③口⑦ |------|
⑫④口⑧
53
口①口口 |①-----|
口口口口 |②-----|
③口口口 |③-----|
口口②口
54
②口口① |①-----|
口口口口 |②-----|
口口③口 |③-----|
口口口口
55
口③口口 |①-----|
口口口口 |②-----|
口口口② |③-----|
①口口口
56
⑨⑪口口 |①-②-③-|
⑧⑩④① |④-⑤-⑥-|
口⑤②口 |⑦-⑧⑨⑩⑪|
⑥③⑦口
57
口口①口 |①-----|
口口口口 |②-----|
口口口口 |③-----|
口②口③
58
口口口② |①-----|
①口⑦⑤ |②-----|
口口⑥④ |③-④⑤⑥⑦|
口③口口
59
①①口口 |①-----|
口口口口 |②-----|
③口口口 |③-----|
口口②口
60
②①口① |①-----|
口口口口 |②-----|
口口③口 |③-----|
口口口口
61
口③口口 |①-----|
口口口口 |②-----|
口口口② |③-----|
①口①口
62
口口口口 |①-②-③-|
口①口① |④-⑤-⑥-|
口⑤②口
④③④口

⑨⑪口⑦
⑧⑩⑥口
口口口口
口口口口 |⑦-⑧⑨⑩⑪|
63
口口①口 |①-----|
口口口口 |②-----|
口口口口 |③-----|
口②口③
64
口口口② |①-----|
①口①口 |②-----|
口口口口
口口口口

口口口口
口④⑤口
口口口口
口③③口 |③---④⑤|
65
⑤⑥⑦⑧ |①②③④⑤⑥|
④口口⑨ |⑦⑧⑨⑩--|
③②①⑩ |------|
口口口口
66
口口⑤⑤ |①-②③④-|
①⑥②口 |⑤-⑥⑦⑧-|
①③口口
口口④口

口⑩口口
口口⑪口
口⑫⑦口
⑨⑧口⑨ |⑨-⑩⑪⑫-|
67
口口②⑤ |①-②③④-|
①③口① |⑤-⑥-⑦-|
口口④口
口⑥⑥口

⑦⑦口口
⑩口⑧口
⑩⑧口口
⑨口口⑨ |⑧-⑨-⑩-|
68
⑤⑤口口 |①-②③④-|
口②⑥① |⑤-⑥⑦⑧-|
口⑦③① |⑨-----|
⑨④⑧⑨
69
口⑤⑥口 |①②③④⑤⑥|
③⑦⑧④ |⑦⑧⑨⑩⑪-|
①⑨口②
口口口口

⑪口口⑪
口口口⑭
口口⑩⑭
⑫⑬⑫⑬ |⑫-⑬-⑭-|
70
口②⑦⑦ |①-②③④⑤|
①④③口 |⑥-⑦-⑧-|
①⑥⑤口
口口口口

⑩⑪口口
⑩口口⑨
口口口⑨
口⑧⑧⑫ |⑨-⑩-⑪⑫|
71
口口⑥口 |①②③④⑤⑥|
口⑦②口 |⑦⑧⑨⑩⑪⑫|
③⑤④口
①⑨⑧口

⑪⑬口⑫
口口口⑯
口口口⑩
⑮口口⑭ |⑬⑭⑮⑯--|
72
口口⑤⑤ |①-②③④-|
①⑥②口 |⑤-⑥⑦⑧-|
①③口口
口口④口

口⑩口口
口口⑪口
口⑫⑦口
⑨⑧口⑨ |⑨-⑩⑪⑫-|
73
口口②⑤ |①-②③④-|
①③口① |⑤-⑥-⑦-|
口口④口
口⑥⑥口

⑦⑦口口
⑩口⑧口
⑩⑧口口
⑨口口⑨ |⑧-⑨-⑩-|
74
⑤⑤口口 |①-②③④-|
口②⑥① |⑤-⑥⑦⑧-|
口⑦③① |⑨-----|
⑨④⑧⑨
75
口⑤⑥口 |①②③④⑤⑥|
③⑦⑧④ |⑦⑧⑨⑩⑪-|
①⑨口②
口口口口

⑪口口⑪
口口口⑭
口口⑩⑭
⑫⑬⑫⑬ |⑫-⑬-⑭-|
76
口②⑦⑦ |①-②③④⑤|
①④③口 |⑥-⑦-⑧-|
①⑥⑤口
口口口口

口口口口
⑫口口⑨
⑪口口⑨
⑩⑧⑧⑩ |⑨-⑩-⑪⑫|
77
①口④口 |①---②③|
口⑦③口 |④---⑤⑥|
口⑥②⑨ |⑦---⑧⑨|
口⑤口⑧
78
⑦⑥⑤口 |①-----|
⑧口④① |②③④⑤⑥⑦|
⑨②③口 |⑧⑨⑩⑪⑫⑬|
⑩⑪⑫⑬
79
⑧口口② |①-②-③④|
⑦③④⑤ |⑤-⑥-⑦-|
⑥⑩⑨① |⑧-⑨⑩⑪⑫|
口⑫⑪口
80
⑧口口② |①-②-③④|
⑦③④⑤ |⑤-⑥-⑦-|
⑥⑩⑨口 |⑧-⑨⑩⑪⑫|
①⑫⑪口
81
⑦口口① |--①-②③|
⑥②③④ |④-⑤-⑥-|
⑤⑨⑧口 |⑦-⑧⑨⑩⑪|
口⑪⑩口
82
⑥口口② |①-②-③④|
口③④⑤ |⑤-⑥-⑦⑧|
口口口口
①口口口

口口口⑬
口口口口
⑨⑧⑦口
⑫⑪⑩口 |⑨⑩⑪⑫-⑬|
83
口口口口 |------|
口口口口 |------|
口口口口 |------|
口口口口

accuracy: 100%
最終更新:2022年06月03日 18:16