アットウィキロゴ
眼光 [ 2 ]
猫大樹

BPM:165
1
□□□□ |①---|
□④①□ |②---|
□③②□ |③---|
□□□□ |④---|
2
□①②□ |①-②-|
□□③① |③-④-|
⑤□④□ |⑤---|
□⑥⑤□ |⑥---|
3
□□□□ |①---|
∨□□① |②---|
|□□| |③---|
③□□∧ |④---|

□□□□
□□□2
□□□□
4□□□
4
④□∨□ |①---|
③□|□ |②---|
□□|② |③---|
□□①□ |④---|

□□□□
□□□□
□□□□
□□4□
5
□①□□ |①---|
②|□□ |②---|
□|□③ |③---|
□∧□④ |④---|

□3□□
□□□□
□□□□
□□□□
6
□⑤⑥□ |①-②-|
□④□⑤ |③-④-|
①③□□ |⑤---|
□②①□ |⑥---|
7
①□□∨ |①---|
|□□| |②---|
∧□□③ |③---|
□□□□ |④---|

2□□□
□□□□
□□□4
□□□□
8
□①□□ |①---|
②|□□ |②---|
□|□③ |③---|
□∧□④ |④---|

□4□□
□□□□
□□□□
□□□□
9
④□∨□ |①---|
③□|□ |②---|
□□|② |③---|
□□①□ |④---|

□□□□
□□□□
□□□□
□□3□
10
□②□□ |①---|
□③>① |②-③-|
⑤□□④ |④--⑤|
⑥□□□ |--⑥-|

□□□□
□□□2
□□□□
□□□□
11
□□□□ |①---|
□□□⑥ |②-③-|
④①□⑤ |④--⑤|
□∧③② |--⑥-|

□□□□
□□□□
□2□□
□□□□
12
①②④① |①-②-|
□③⑤□ |③-④-|
□□⑥□ |⑤-⑥-|
⑦□□⑦ |⑦---|
13
④□□□ |①---|
□③③□ |②---|
□□□② |③---|
□①①□ |④---|
14
□□□⑥ |①---|
④□□⑤ |②-③-|
①<③□ |④--⑤|
□□②□ |--⑥-|

□□□□
□□□□
2□□□
□□□□
15
②③∨□ |①---|
⑤□①④ |②-③-|
⑥□□□ |④--⑤|
□□□□ |--⑥-|

□□□□
□□2□
□□□□
□□□□
16
□□□□ |①---|
④④⑦□ |②-③-|
⑤①□③ |④-⑤-|
□⑥②② |⑥-⑦-|
17
□□□□ |①-②-|
□□□□ |③-④-|
⑦④②⑤ |⑤-⑥-|
③⑧⑥① |⑦-⑧-|
18
□②□□ |①---|
□③>① |②-③-|
⑤□□④ |④--⑤|
⑥□□□ |--⑥-|

□□□□
□□□2
□□□□
□□□□
19
□□□□ |①---|
□□□⑥ |②-③-|
④①□⑤ |④--⑤|
□∧③② |--⑥-|

□□□□
□□□□
□2□□
□□□□
20
①②④① |①-②-|
□③⑤□ |③-④-|
□□⑥□ |⑤-⑥-|
⑦□□⑦ |⑦---|
21
④□□□ |①---|
□③③□ |②---|
□□□② |③---|
□①①□ |④---|
22
□□□⑥ |①---|
④□□⑤ |②-③-|
①<③□ |④-⑤-|
□□②□ |--⑥-|

□□□□
□□□□
2□□□
□□□□
23
②③∨□ |①---|
⑤□①④ |②-③-|
□□⑥□ |④-⑤-|
□□□□ |--⑥-|

□□□□
□□2□
□□□□
□□□□
24
□□□□ |①---|
④④⑦□ |②-③-|
⑤①□③ |④-⑤-|
□⑥②② |⑥-⑦-|
25
□⑩□□ |①-②-|
□□⑨⑧ |③-④-|
⑦④②□ |⑤⑥⑦-|
③⑥⑤① |⑧⑨⑩-|
26
□⑫②① |①②③④|
③④⑪□ |⑤⑥⑦⑧|
□⑩⑥⑤ |⑨-⑩-|
⑦⑧⑨□ |⑪-⑫-|
27
□⑫②① |①②③④|
③④⑪□ |⑤⑥⑦⑧|
□⑩⑥⑤ |⑨-⑩-|
⑦⑧⑨□ |⑪-⑫-|
28
②□③□ |①-②-|
□④□① |③-④-|
⑤□⑧□ |⑤-⑥-|
□⑦□⑥ |⑦-⑧-|
29
□□③② |①-②-|
□□④① |③-④-|
⑧⑦□□ |⑤-⑥-|
⑤⑥□□ |⑦-⑧-|
30
□⑫②① |①②③④|
③④⑪□ |⑤⑥⑦⑧|
□⑩⑥⑤ |⑨-⑩-|
⑦⑧⑨□ |⑪-⑫-|
31
□⑫②① |①②③④|
③④⑪□ |⑤⑥⑦⑧|
□⑩⑥⑤ |⑨-⑩-|
⑦⑧⑨□ |⑪-⑫-|
32
□□②□ |①-②-|
□③□① |③-④-|
④□⑥□ |⑤-⑥-|
□⑤□□ |⑦-⑧-|

□□□□
□□□⑦
□□□□
□□□⑧
33
⑥③□□ |①--②|
③⑤②⑥ |--③-|
⑥②④① |④-⑤-|
□□①⑥ |⑥---|
34
∨□□□ |①-②-|
|□□□ |③-④-|
|□□□ |⑤-⑥-|
①□①□ |⑦-⑧-|

□□⑧□
□⑥④□
□③⑦②
7⑤□□
35
□①□② |①-②-|
①□③□ |③-④-|
④③□⑤ |⑤-⑥-|
⑥□⑤□ |⑦-⑧-|

□□□□
⑧□□⑦
□□□□
□□□□
36
□□□∨ |①-②-|
□□□| |③-④-|
□□□| |⑤-⑥-|
□①□① |⑦-⑧-|

□⑧□□
□④⑥□
②⑦③□
□□⑤7
37
②□①□ |①-②-|
□③□① |③-④-|
⑤□③④ |⑤-⑥-|
□⑤□⑥ |⑦-⑧-|

□□□□
⑦□□⑧
□□□□
□□□□
38
①⑧①□ |①-②-|
□⑦②□ |③-④-|
□⑥③□ |⑤-⑥-|
□⑤④⑤ |⑦-⑧-|
39
①□□⑧ |①-②-|
②□①⑦ |③-④-|
③⑤□⑥ |⑤-⑥-|
④□□⑤ |⑦-⑧-|
40
④□□□ |①---|
②□①③ |②---|
□③②④ |③---|
□①□□ |④---|
41
□⑤⑤① |①-②-|
④□②□ |③-④-|
①③⑥□ |⑤-⑥-|
□□□□ |⑦-⑧-|

□□□□
□⑦□□
⑧□□□
□□□□
42
∨□□□ |①-②-|
|□□□ |③-④-|
|□□□ |⑤-⑥-|
①□①□ |⑦-⑧-|

□□⑧□
□⑥④□
□③⑦②
7⑤□□
43
□①□② |①-②-|
①□③□ |③-④-|
④③□⑤ |⑤-⑥-|
⑥□⑤□ |⑦-⑧-|

□□□□
⑧□□⑦
□□□□
□□□□
44
□□□∨ |①-②-|
□□□| |③-④-|
□□□| |⑤-⑥-|
□①□① |⑦-⑧-|

□⑧□□
□④⑥□
②⑦③□
□□⑤7
45
②□①□ |①-②-|
□③□① |③-④-|
⑤□③④ |⑤-⑥-|
□⑤□⑥ |⑦-⑧-|

□□□□
⑦□□⑧
□□□□
□□□□
46
①⑧①□ |①-②-|
□⑦②□ |③-④-|
□⑥③□ |⑤-⑥-|
□⑤④⑤ |⑦-⑧-|
47
①□□② |①---|
②⑤④① |②---|
③□□③ |③---|
□□□□ |④-⑤-|
48
□①③□ |①-②-|
①⑥⑧③ |③-④-|
⑤②④⑦ |⑤-⑥-|
□⑤⑦□ |⑦-⑧-|
49
⑤□□⑤ |①--②|
①④□① |--③-|
□②③□ |④---|
□□□□ |⑤---|
50
□①②□ |①-②-|
□□③① |③-④-|
⑤□④□ |⑤---|
□⑥⑤□ |⑥---|
51
□□□□ |①---|
∨□□① |②---|
|□□| |③---|
③□□∧ |④---|

□□□□
□□□2
□□□□
4□□□
52
④□∨□ |①---|
③□|□ |②---|
□□|② |③---|
□□①□ |④---|

□□□□
□□□□
□□□□
□□4□
53
□①□□ |①---|
②|□□ |②---|
□|□③ |③---|
□∧□④ |④---|

□3□□
□□□□
□□□□
□□□□
54
□⑤⑥□ |①-②-|
□④□⑤ |③-④-|
①③□□ |⑤---|
□②①□ |⑥---|
55
①□□∨ |①---|
|□□| |②---|
∧□□③ |③---|
□□□□ |④---|

2□□□
□□□□
□□□4
□□□□
56
□①□□ |①---|
②|□□ |②---|
□|□③ |③---|
□∧□④ |④---|

□4□□
□□□□
□□□□
□□□□
57
④□∨□ |①---|
③□|□ |②---|
□□|② |③---|
□□①□ |④---|

□□□□
□□□□
□□□□
□□3□
58
□>―① |①---|
③②□□ |②---|
④>―③ |③---|
□□□□ |④---|

□□□4
□□□□
□□□4
□□□□
59
□□□□ |①---|
③―<④ |②---|
□□②③ |③---|
①―<□ |④---|

□□□□
4□□□
□□□□
4□□□
60
①―<□ |①---|
□□②③ |②---|
③―<④ |③---|
□□□□ |④---|

4□□□
□□□□
4□□□
□□□□
61
□□□□ |①---|
④>―③ |②---|
③②□□ |③---|
□>―① |④---|

□□□□
□□□4
□□□□
□□□4
62
□>―① |①---|
③②□□ |②---|
④>―③ |③---|
□□□□ |④---|

□□□4
□□□□
□□□4
□□□□
63
□□□□ |①---|
③―<□ |②---|
□□②③ |③---|
①―<□ |④---|

□□□□
4□□□
□□□□
4□□□
64
□□□□ |①---|
□④□① |②---|
□□③| |③---|
□②□∧ |④---|

□□□□
□□□4
□□□□
□□□□
65
①④□□ |①---|
|□③□ |②---|
∧②□□ |③---|
□□□□ |④---|

4□□□
□□□□
□□□□
□□□□
66
□⑫②① |①②③④|
③④⑪□ |⑤⑥⑦⑧|
□⑩⑥⑤ |⑨-⑩-|
⑦⑧⑨□ |⑪-⑫-|
67
□⑫②① |①②③④|
③④⑪□ |⑤⑥⑦⑧|
□⑩⑥⑤ |⑨-⑩-|
⑦⑧⑨□ |⑪-⑫-|
68
②□③□ |①-②-|
□④□① |③-④-|
⑤□⑧□ |⑤-⑥-|
□⑦□⑥ |⑦-⑧-|
69
□□③② |①-②-|
□□④① |③-④-|
⑧⑦□□ |⑤-⑥-|
⑤⑥□□ |⑦-⑧-|
70
□⑫②① |①②③④|
③④⑪□ |⑤⑥⑦⑧|
□⑩⑥⑤ |⑨-⑩-|
⑦⑧⑨□ |⑪-⑫-|
71
□⑫②① |①②③④|
③④⑪□ |⑤⑥⑦⑧|
□⑩⑥⑤ |⑨-⑩-|
⑦⑧⑨□ |⑪-⑫-|
72
□□②□ |①-②-|
□③□① |③-④-|
④□□□ |⑤-⑥-|
□□□□ |⑦-⑧-|

□□□□
□□□⑦
□□⑥□
□⑤□⑧
73
⑥③□□ |①--②|
③⑤②⑥ |--③-|
⑥②④① |④-⑤-|
□□①⑥ |⑥---|
74
□□□□ |----|
□□□□ |----|
□□□□ |----|
□□□□ |----|
最終更新:2022年08月29日 04:04