アットウィキロゴ
情熱大陸 [ 2 ]
(葉加瀬太郎)

BPM:128
1
□□□② |----|
□□□□ |----|
□□□□ |----|
①□□□ |①-②-|
2
③③< |①--②|
□②②□ |--③-|
□①①□ |----|
□□□□ |④-⑤-|

□44□
□④⑤□
□□□□
□□□□
3
①□□② |①-②③|
①□□□ |-④⑤-|
□③□□ |----|
③□□④ |⑥-⑦-|

□□□□
□□□□
⑤―<□
□⑤―<

□□□□
□□□□
6□□□
□6□⑦
4
□□>① |①-②③|
□>①□ |-④-⑤|
□□□□ |-⑥-⑦|
□□□□ |-⑧-⑨|

□□□2
□□2□
□□□□
②□□□

□>③□
□□>③
□□□□
□□□□

□□4□
④□□4
□④□□
□□□□

⑥<□□
□⑥<∨
□□∨⑤
□□⑤□

□□□□
□□□□
□>⑦□
□□>⑦

□□⑨□
∨□□⑨
⑧∨□□
□⑧□□

7□□□
□7□□
9□86
□968
5
⑤③□② |①-②-③-|
③⑤②□ |④-⑤-⑥-|
□①⑥④ |⑦--⑧|
①□④⑥ |⑨-⑩-|

∨□□□
|∨□□
⑦|□□
□⑦□□

□□□⑩
⑨□□□
8□□□
□8□□
6
③③< |①--②|
□②②□ |--③-|
□①①□ |----|
□□□□ |④-⑤-|

□44□
□□□□
□④⑤□
□□□□
7
①<□□ |①-②-③-|
□①<∨ |④-⑤-⑥-|
□□∨② |⑦---|
□□②□ |⑧-⑨-|

2□□□
□2□□
□□□□
□□□□

□□>④
∨>④□
③∨□□
□③□□

□□□□
□□□□
4□□3
□43□

∨□□□
⑤∨>⑥
□⑤□□
□□>⑥

□□□5
6□5□
□6□□
□□□□

□□□□
□□□□
□□□□
⑦―<□

⑨□□□
□□□7
□□□□
8□□7
8
□⑩□③ |①②-③|
⑤②□⑦ |-④-⑤|
□□⑨④ |-⑥-⑦|
⑥⑧①□ |⑧-⑨-⑩-|
9
④□□① |①-②-③-|
②④①⑤ |--④-⑤-|
⑥②⑤③ |⑥--⑦|
□⑥③□ |⑧-⑨-|

□□□⑨
□□□□
□□□□
⑧□□⑦
10
③③< |①--②|
□②②□ |--③-|
□①①□ |----|
□□□□ |④-⑤-|

□44□
□④⑤□
□□□□
□□□□
11
①□□② |①-②③|
①□□□ |-④⑤-|
□③□□ |----|
③□□④ |⑥-⑦-|

□□□□
□□□□
⑤―<□
□⑤―<

□□□□
□□□□
6□□□
□6□⑦
12
□□>① |①-②③|
□>①□ |-④-⑤|
□□□□ |-⑥-⑦|
②□□□ |-⑧-⑨|

□□□2
□□2□
□□□□
□□□□

□>③□
④□>③
□④□□
□□□□

□□4□
□□□4
□□□□
□□□□

⑥<□□
□⑥<∨
□□∨⑤
□□⑤□

□□□□
□□□□
□>⑦□
□□>⑦

□□⑨□
∨□□⑨
⑧∨□□
□⑧□□

7□□□
□7□□
9□86
□968
13
⑤③□② |①-②-③-|
③⑤②□ |④-⑤-⑥-|
□①⑥④ |⑦--⑧|
①□④⑥ |⑨-⑩-|

∨□□□
|∨□□
⑦|□□
□⑦□□

□□□⑩
⑨□□□
8□□□
□8□□
14
③③< |①--②|
□②②□ |--③-|
□①①□ |----|
□□□□ |④-⑤-|

□44□
□□□□
□④⑤□
□□□□
15
①<□□ |①-②-③-|
□①<∨ |④-⑤-⑥-|
□□∨② |⑦---|
□□②□ |⑧-⑨-|

2□□□
□2□□
□□□□
□□□□

□□>④
∨>④□
③∨□□
□③□□

□□□□
□□□□
4□□3
□43□

∨□□□
⑤∨>⑥
□⑤□□
□□>⑥

□□□5
6□5□
□6□□
□□□□

□□□□
□□□7
□□□□
⑦―<7

⑨□□□
□□□□
□□□□
8□□□
16
□⑩□③ |①②-③|
⑤②□⑦ |-④-⑤|
□□⑨④ |-⑥-⑦|
⑥⑧①□ |⑧-⑨-⑩-|
17
④□□① |①-②-③-|
②④①⑤ |--④-⑤-|
⑥②⑤③ |⑥--⑦|
□⑥③□ |⑧-⑨-|

□⑦□□
⑦□⑨□
□⑨□⑧
□□⑧□
18
①>―⑥ |①-②③|
⑤□□② |-④-⑤|
⑤□□□ |-⑥-⑦|
③③④① |⑧-⑨-|

⑨⑨⑧7
□□⑧□
□⑦□□
□□□□
19
□>―⑥ |①-②③|
⑤□□② |-④-⑤|
⑤□□□ |-⑥-⑦|
③③④① |⑧-⑨-|

⑨⑨⑧7
□□⑧□
□⑦□□
□□□□
20
□>―⑥ |①-②③|
⑤□□② |-④-⑤|
⑤□□□ |-⑥-⑦|
③③④① |⑧-⑨-|

⑨⑨⑧7
□□⑧□
□⑦□□
□□□□
21
□>―⑥ |①-②③|
⑤□□② |-④-⑤|
⑤□□□ |-⑥-⑦|
③③④① |⑧-⑨-|

⑨⑨⑧7
□□⑧□
□⑦□□
□□□□
22
□>―⑥ |①-②③|
⑤□□② |-④-⑤|
⑤□□□ |-⑥-⑦|
③③④① |⑧-⑨-|

⑨⑨⑧7
□□⑧□
□⑦□□
□□□□
23
□>―⑥ |①-②③|
⑤□□② |-④-⑤|
⑤□□□ |-⑥-⑦|
③③④① |⑧-⑨-|

⑨⑨⑧7
□□⑧□
□⑦□□
□□□□
24
□>―⑥ |①-②③|
⑤□□② |-④-⑤|
⑤□□□ |-⑥-⑦|
③③④① |⑧-⑨-|

⑨⑨⑧7
□□⑧□
□⑦□□
□□□□
25
□□□□ |①-②③|
⑤□□② |-④-⑤|
⑤□□□ |----|
③③④① |⑥-⑦-|

□□□⑦
□□□□
□□□□
⑥□□□
26
③③< |①--②|
□②②□ |--③-|
□①①□ |----|
□□□□ |④-⑤-|

□44□
□④⑤□
□□□□
□□□□
27
①□□② |①-②③|
①□□□ |-④⑤-|
□③□□ |---ー|
③□□④ |⑥-⑦-|

□□□□
□□□□
⑤―<□
□⑤―<

□□□□
□□□□
6□□□
□6□⑦
28
□□>① |①-②③|
□>①□ |-④-⑤|
□□□□ |-⑥-⑦|
□□□□ |-⑧-⑨|

□□□2
□□2□
□□□□
②□□□

□>③□
□□>③
□□□□
□□□□

□□4□
④□□4
□④>⑤
□>⑤□

⑥<□□
□⑥<□
□>⑦□
□□>⑦

□□⑨□
∨□□⑨
⑧∨□□
□⑧□□

7□□□
□7□□
9□86
□968
29
⑤③□② |①-②-③-|
③⑤②□ |④-⑤-⑥-|
□①⑥④ |⑦--⑧|
①□④⑥ |⑨-⑩-|

∨□□□
|∨□□
⑦|□□
□⑦□□

□□□⑩
⑨□□□
8□□□
□8□□
30
③③< |①--②|
□②②□ |--③-|
□①①□ |----|
□□□□ |④-⑤-|

□44□
□□□□
□④⑤□
□□□□
31
①<□□ |①-②-③-|
□①<∨ |④-⑤-⑥-|
□□∨② |⑦---|
□□②□ |⑧-⑨-|

2□□□
∨2□□
③∨□3
□③3□

□□>④
□>④□
4□□□
□4□□

∨□□5
⑤∨5□
□⑤□□
□□□□

□□□□
6□>⑥
□6□□
□□>⑥

□□□□
□□□7
□□□□
⑦―<7

⑨□□□
□□□□
□□□□
8□□□
32
□⑩□③ |①②-③|
⑤②□⑦ |-④-⑤|
□□⑨④ |-⑥-⑦|
⑥⑧①□ |⑧-⑨-⑩-|
33
□□①① |①---|
□□>④ |②---|
□□>③ |③---|
□□>② |④---|

□□□□
□□□□
□□□4
□□□3
34
――① |①--②|
③③□1 |--③-|
□□□□ |---④|
②②□□ |--⑤⑥|

④④⑤5
□□⑥□
⑤⑤□□
□□□□
35
⑥⑥□□ |①--②|
④④>⑤ |③-④-|
□□①□ |⑤--⑥|
②②>③ |⑦-⑧-|

□□□□
□□□□
⑧⑧⑦<
□□□□

□□□□
□□□7
□□□□
□□□5
36
――① |①--②|
③③□□ |--③-|
□□1□ |---④|
②②□□ |--⑤⑥|

④④□5
□□⑥□
⑤⑤⑤□
□□□□
37
□□①□ |①--②|
④④□□ |③-④-|
□□>③ |⑤-⑥-|
②②□□ |⑦-⑧-|

⑧⑧□□
□>⑤□
⑥⑥□□
□>⑦□

□□□□
□□7□
□□□5
□□□□
38
□□□□ |①--②|
――① |--③-|
□□□□ |---④|
□□1□ |--⑤⑥|

④④⑤□
③③⑥5
⑤⑤□□
②②□□
39
□□□□ |①--②|
④④□□ |③-④-|
□□①□ |⑤--⑥|
②②>③ |⑦-⑧-|

⑥⑥□□
□□>⑤
□□□□
□□□□

□□□□
□>⑦□
⑧⑧□□
□□□□

□□□□
□□□7
□□□□
□□□5
40
□□□□ |①--②|
□□1□ |--③-|
□>―① |---④|
□□□□ |--⑤⑥|

④④□□
③③□□
□□□□
②②□□

□□□□
□□□⑤
⑤⑤⑥5
□□□□
41
□□□□ |①-②-③-|
□□□□ |④-⑤-⑥-|
□□□□ |⑦⑧-⑨|
③②①□ |⑩-⑪-|

□□□□
⑥⑤④□
□□□□
□□>④

⑩⑨□□
□□>⑩
⑧⑦>⑦
□□□7

□□□□
□□□□
□□⑪⑩
□□□□
42
――① |①--②|
③③□1 |--③-|
□□□□ |---④|
②②□□ |--⑤⑥|

④④⑤5
□□⑥□
⑤⑤□□
□□□□
43
□□□□ |①--②|
④④>⑤ |③-④-|
□□①□ |⑤--⑥|
②②>③ |⑦-⑧-|

□□□□
□□□□
□□□□
□□□5

⑥⑥□□
□□□7
⑧⑧⑦<
□□□□
44
――① |①--②|
③③□□ |--③-|
□□1□ |---④|
②②□□ |--⑤⑥|

④④□5
□□⑥□
⑤⑤⑤□
□□□□
45
□□①□ |①--②|
④④□□ |③-④-|
□□>③ |⑤-⑥-|
②②□□ |⑦-⑧-|

⑧⑧□□
□>⑤□
⑥⑥□□
□□⑦<

□□□□
□□7□
□□□5
□□□□
46
□□□□ |①--②|
――① |--③-|
□□□□ |---④|
□□1□ |--⑤⑥|

④④⑤□
③③⑥5
⑤⑤□□
②②□□
47
□□□□ |①--②|
④④>⑤ |③-④-|
□□①□ |⑤--⑥|
②②>③ |⑦-⑧-|

⑥⑥□□
□>⑦□
⑧⑧□□
□□□□

□□□□
□□□7
□□□□
□□□5
48
□□□□ |①--②|
③③1□ |--③-|
――① |---④|
②②□□ |--⑤⑥|

④④□□
□□□⑤
⑤⑤⑥5
□□□□
49
⑤⑤□□ |①--②|
③③□□ |--③-|
④④□□ |--④-|
②②①□ |--⑤-|
50
□>―⑥ |①-②③|
⑤□□② |-④-⑤|
⑤□□□ |-⑥-⑦|
③③④① |⑧-⑨-|

⑨⑨⑧7
□□⑧□
□⑦□□
□□□□
51
□>―⑥ |①-②③|
⑤□□② |-④-⑤|
⑤□□□ |-⑥-⑦|
③③④① |⑧-⑨-|

⑨⑨⑧7
□□⑧□
□⑦□□
□□□□
52
□>―⑥ |①-②③|
⑤□□② |-④-⑤|
⑤□□□ |-⑥-⑦|
③③④① |⑧-⑨-|

⑨⑨⑧7
□□⑧□
□⑦□□
□□□□
53
□>―⑥ |①-②③|
⑤□□② |-④-⑤|
⑤□□□ |-⑥-⑦|
③③④① |⑧-⑨-|

⑨⑨⑧7
□□⑧□
□⑦□□
□□□□
54
□>―⑥ |①-②③|
⑤□□② |-④-⑤|
⑤□□□ |-⑥-⑦|
③③④① |⑧-⑨-|

⑨⑨⑧7
□□⑧□
□⑦□□
□□□□
55
□>―⑥ |①-②③|
⑤□□② |-④-⑤|
⑤□□□ |-⑥-⑦|
③③④① |⑧-⑨-|

⑨⑨⑧7
□□⑧□
□⑦□□
□□□□
56
□>―⑥ |①-②③|
⑤□□② |-④-⑤|
⑤□□□ |-⑥-⑦|
③③④① |⑧-⑨-|

⑨⑨⑧7
□□⑧□
□⑦□□
□□□□
57
⑦⑦⑧⑧ |①-②-③-|
③③⑥⑥ |④-⑤-⑥-|
⑤⑤②② |⑦⑧-⑨|
④④①① |⑩-⑪-|

□□□□
⑩⑩□□
□□□⑨
□⑪⑪⑨
58
□□□□ |①---|
□□①□ |----|
□①□□ |----|
□□□□ |----|
最終更新:2022年08月29日 04:30