アットウィキロゴ
splash!
BEMANI Sound Team "Trance Liquid"

EXTREME

Level: 10.5
BPM: 156
Notes(hold): 715(25)

1
口口口① |①-②③|
④⑨⑧⑦ |④-⑤⑥|
口②③口 |⑦⑧⑨-|
⑩⑥⑤口 |⑩-⑪⑫|

口口口口
口口口口
口⑫⑪口
口口口口
2
①<>① |①---|
∨口口∨ |----|
①口口① |----|
口口口口 |②---|

②口口②
口口口口
②口口②
口口口口
3
口口口② |①---|
口口口口 |----|
口口口② |②---|
①口①口 |----|
4
①④⑦口 |①-②-|
口②⑤⑧ |③-④-|
③⑥口口 |⑤-⑥-|
口口口口 |⑦-⑧-|
5
口口口口 |①---|
口口口口 |----|
口口①口 |--②-|
口口口② |③-④-|

口口口口
口口口④
口口③口
口口口口
6
口⑦④① |①-②-|
⑧⑤②口 |③-④-|
口口⑥③ |⑤-⑥-|
口口口口 |⑦-⑧-|
7
口口口口 |①---|
口③④口 |----|
③①口④ |②--③|
口②②口 |--④-|
8
口①④⑦ |①-②-|
②⑤⑧口 |③-④-|
口③⑥口 |⑤-⑥-|
口口口口 |⑦-⑧-|
9
②口口口 |①---|
口口口③ |--②-|
②①④① |--③-|
口口口⑤ |④-⑤-|
10
②③口③ |①---|
①口①④ |②---|
②口口口 |③---|
①口①④ |④---|
11
②③③③ |①---|
口口口④ |②---|
②口口口 |③---|
①①①④ |④---|
12
③⑤⑤⑤ |①-②-|
③②④⑦ |③-④-|
③口⑥口 |⑤-⑥-|
①①①⑦ |⑦---|
13
②③口③ |①---|
口口口⑤ |②---|
②⑥④⑤ |③-④-|
①口①⑤ |⑤-⑥-|
14
③⑤⑤⑤ |①-②-|
③②④⑦ |③-④-|
③⑧⑥口 |⑤-⑥-|
①①①⑦ |⑦-⑧-|
15
②③③③ |①---|
口口口⑤ |②---|
②④口⑥ |③--④|
①口①⑤ |⑤-⑥-|
16
③⑤⑤⑤ |①-②-|
③②④⑦ |③-④-|
③口⑥口 |⑤-⑥-|
①①①⑦ |⑦---|
17
②④口④ |①---|
口口③⑥ |②-③-|
②⑤口⑥ |④-⑤-|
①①①⑥ |⑥-⑦-|

口口口口
口口口口
口口口口
口⑦口口
18
①>①口 |①---|
∧口∨口 |--②-|
①<①口 |----|
口口口口 |----|

②口②口
口②口口
②口②口
口口口口
19
口④③⑤ |①-②-|
口口口⑥ |③---|
口口口⑦ |④---|
①③④② |⑤⑥⑦⑧----|

口口口口
口口口口
口口口口
口口口⑧
20
口口口⑥ |①---|
⑤①⑥口 |②③④⑤|
③口④口 |⑥--⑦|
口①②口 |--⑧-|

口口口口
口⑦口⑧
口口口口
口⑧口⑦
21
⑦①⑧< |①-②③|
⑤口⑥口 |④⑤⑥⑦|
③①④口 |⑧-⑨-|
口口②口 |⑩---|

口⑩⑨口
口口口口
口口口口
口⑩口口
22
⑦口⑧口 |①-②③|
⑤①⑥口 |④⑤⑥⑦|
③①④⑩ |⑧-⑨⑩|
口⑨②口 |⑪⑫⑬⑭|

口口口⑭
口⑬口⑫
口⑪口口
口口口口
23
⑦①⑧< |①-②③|
⑤口⑥口 |④⑤⑥⑦|
③口④口 |⑧-⑨-|
口口②口 |⑩---|

口⑩⑨口
口口口口
口口口口
口⑩口口
24
④口口① |①-②③|
⑦③②口 |④-⑤⑥|
①⑥⑤口 |⑦-⑧⑨|
口⑨⑧口 |⑩⑪⑫⑬|

口口口口
口口口口
⑩口口⑪
⑫口口⑬
25
①口口< |①---|
口口口口 |②-③④|
口口口口 |⑤⑥⑦-|
口口口口 |⑧⑨⑩⑪|

②⑦口口
⑥口口③
⑨⑤④⑧
⑪口口⑩
26
⑩⑥⑦⑤ |①②③④|
口②①口 |⑤-⑥⑦|
口⑧⑨口 |⑧⑨⑩-|
口④③口 |⑪⑫⑬⑭|

口口口口
口⑫⑪口
口口口口
口⑭⑬口
27
口⑥⑤④ |①-②③|
口⑨⑩① |④⑤⑥-|
②③口口 |⑦⑧⑨⑩|
⑦⑪⑫⑧ |⑪⑫⑬⑭|

口口口口
口口口口
口⑬⑭口
口口口口
28
①口口① |①---|
②口口口 |②---|
③口口口 |③-④-|
口口口∧ |⑤---|

口口口④
口口口口
口口口口
⑤口口口
29
①③③口 |①---|
②口口口 |②---|
③口口口 |③---|
④①①口 |④---|
30
①口④① |①-②-|
③⑤②口 |③-④-|
⑤口⑥③ |⑤-⑥-|
口口口口 |⑦-⑧-|

口口口⑦
口口⑧口
口口口口
⑦口口口
31
①口口口 |①---|
②口口⑥ |②---|
③口⑤① |③-④-|
⑤口口④ |⑤-⑥-|
32
①口④① |①-②-|
③⑤②口 |③-④-|
⑤口⑥③ |⑤-⑥-|
⑦口口口 |⑦---|
33
①口口⑥ |①---|
②④④口 |②---|
③口口⑥ |③--④|
⑤③③口 |⑤-⑥-|
34
①④①口 |①-②-|
③口⑤② |③-④-|
⑤⑥③口 |⑤-⑥-|
口口口口 |⑦---|

口口⑦口
口口口口
口口口口
⑦口口口
35
①③口② |①---|
①口④口 |--②-|
口⑤口② |--③-|
口口①① |④-⑤-|
36
④口口口 |①---|
③口口口 |②---|
②口口口 |③---|
①①①① |④---|
37
④①①口 |①---|
③口口口 |②---|
②口口口 |③---|
①③③口 |④---|
38
口口④① |①-②-|
⑤⑤②口 |③-④-|
③口⑥③ |⑤-⑥-|
①口口口 |⑦-⑧-|

⑦口口⑦
口口⑧口
口口口口
口口口口
39
⑤口口口 |①---|
③口口⑥ |②---|
②口⑤① |③-④-|
①口口④ |⑤-⑥-|
40
⑦口④① |①-②-|
⑤⑤②口 |③-④-|
③口⑥③ |⑤-⑥-|
①口口口 |⑦---|
41
⑤口口⑥ |①---|
③④④口 |②---|
②口口⑥ |③--④|
①③③口 |⑤-⑥-|
42
口④①口 |①-②-|
⑤口⑤② |③-④-|
③⑥③口 |⑤-⑥-|
①口口口 |⑦---|

⑦口⑦口
口口口口
口口口口
口口口口
43
口③口② |①---|
口口④口 |--②-|
口⑤口② |--③-|
①口口① |④-⑤-|
44
∨⑤口③ |①---|
①口④① |--②-|
∨⑥②口 |③-④-|
①口口① |⑤-⑥-|
45
口口口口 |①---|
口口⑥① |--②-|
口⑤口③ |③-④-|
口②④口 |⑤-⑥-|
46
口口口① |①---|
口口④口 |--②-|
口⑤②③ |③-④-|
口口⑥口 |⑤-⑥-|
47
口口②口 |①---|
口③口② |②---|
口口③④ |③---|
口①④口 |④---|
48
口⑤口④ |①-②-|
口口②口 |③-④-|
口口③⑥ |--⑤-|
口①口口 |--⑥-|
49
口④口⑤ |①-②-|
口②口口 |③-④-|
口⑥③口 |--⑤-|
口口①口 |--⑥-|
50
口⑤口④ |①-②-|
口口②口 |③-④-|
口口③⑥ |--⑤-|
口①口口 |--⑥-|
51
口口⑥口 |①---|
①⑦①⑤ |②③④⑤|
②⑧④⑩ |⑥⑦⑧⑨|
①③⑨口 |⑩⑪⑫⑬|

口⑫口口
⑬口⑪口
口口口口
口口口口
52
①口口① |①---|
口口口口 |----|
口口口口 |②---|
②><② |③④⑤⑥|

⑥口口口
口口口⑤
④口口口
③口口③
53
口⑨⑦① |①②③-|
⑥口②口 |④⑤⑥⑦|
口③口⑤ |-⑧⑨-|
⑧④口口 |⑩⑪-⑫|

口口口⑩
口口⑫口
⑫口口口
口口⑪口
54
①⑨④口 |①②③-|
⑦②口⑧ |④⑤⑥⑦|
⑨⑤③⑥ |⑧-⑨-|
口口⑧口 |⑩⑪--|

⑩口口口
口⑪口口
口口⑪口
口口口⑩
55
口⑨⑦① |①②③-|
⑥口②口 |④⑤⑥⑦|
口③口⑤ |-⑧⑨-|
⑧④口口 |⑩⑪-⑫|

口口口⑩
口口⑫口
⑫口口口
口口⑪口
56
①⑨③⑦ |①②③-|
④口口⑩ |④⑤-⑥|
口⑤⑪⑥ |⑦⑧⑨-|
口②⑧⑥ |⑩⑪-⑫|

⑫口口口
⑫口口口
口口口口
口口口口
57
⑨⑧①⑦ |①②③-|
口②⑤口 |④⑤⑥⑦|
③⑥口口 |-⑧⑨-|
④口⑪⑩ |⑩⑪-⑫|

口口口口
口⑫口口
口口口⑫
口口口口
58
⑩④⑨口 |①②③-|
⑧口①⑦ |④⑤⑥⑦|
⑥②⑤⑨ |⑧-⑨-|
③⑧口⑩ |⑩⑪--|

口口口口
口口⑪口
口⑪口口
口口口口
59
⑩①⑥② |①②-③|
口⑤口口 |--④⑤|
③口④⑦ |⑥--⑦|
⑧⑦③⑨ |-⑧⑨⑩|
60
⑨③③① |①-②-|
⑨⑦⑧口 |③-④-|
⑥②④⑨ |⑤⑥⑦⑧|
⑤④②⑨ |⑨---|
61
口②>① |①-②-|
口⑥⑤口 |③④⑤⑥|
口④③口 |--⑦-|
口⑦口口 |⑧⑨-⑩|

⑧⑨口⑧
口口口口
口口⑩口
口口口口
62
口口②口 |①-②-|
③④口① |③④-⑤|
口①口∧ |⑥-⑦-|
口口⑤口 |⑧⑨--|

口口口口
口口⑦③
⑧口口⑥
⑨⑥口∧

口口口口
口口口口
口口口⑧
口口口口
63
①口②⑦ |①-②-|
⑩⑤⑥⑨ |③④⑤⑥|
口③④⑧ |--⑦-|
口∧口口 |⑧⑨-⑩|
64
③口口口 |①-②-|
口④②口 |③④-⑤|
口①⑥口 |⑥-⑦-|
⑦⑤①口 |⑧-⑨-|

口口口口
⑨口口口
口口口口
口口⑧口
65
⑦②口① |①-②-|
⑨⑥⑤⑩ |③④⑤⑥|
⑧④③口 |--⑦-|
口口∧口 |⑧⑨-⑩|
66
口口口③ |①-②-|
口②④口 |③④-⑤|
⑧⑥①口 |⑥--⑦|
口①⑤⑦ |--⑧-|
67
①口②⑦ |①-②-|
口⑥⑤④ |③-④⑤|
口③口口 |⑥--⑦|
口∧⑧口 |--⑧-|
68
⑦②①⑧ |①②-③|
④<口③ |--④-|
口①口口 |⑤-⑥-|
⑥口口⑤ |⑦-⑧-|

口口口口
⑥口口口
口口口口
口口口口
69
口①①口 |①---|
口∧口口 |--②-|
①<口① |----|
口②②口 |----|
70
口口口④ |①--②|
口口口① |--③-|
口口口⑤ |-④-⑤|
②⑥口③ |--⑥-|
71
口口口④ |①--②|
口口口① |--③-|
口口口⑤ |-④-⑤|
②⑥口③ |--⑥-|
72
口②口口 |①---|
口口口① |----|
②口口口 |----|
口口口口 |②---|
最終更新:2022年04月07日 16:14