アットウィキロゴ
MA・TSU・RI
かなたん,アマギセーラ,ぁゅ by BEMANI Sound Team "藤森崇多"

BASIC

Level: 3
BPM: 160
Notes: 276

1
口口口口 |----|
口口口口 |----|
口口口口 |----|
口口口口 |----|
2
口口口口 |①---|
口①①口 |----|
口口口口 |----|
口口口口 |----|
3
口口口口 |①---|
①①口② |----|
口口口口 |②---|
口口口口 |----|
4
口口①口 |①---|
口口②口 |②---|
口口③口 |③---|
口口④口 |④---|
5
口口口口 |①---|
②口①① |----|
口口口口 |②---|
口口口口 |----|
6
口①口口 |①---|
口②口口 |②---|
口③口口 |③---|
口④口口 |④---|
7
口口口口 |①---|
①①口② |----|
口口口口 |②---|
口口口口 |----|
8
口口①口 |①---|
口口②口 |②---|
口口③口 |③---|
口口④口 |④---|
9
口口口口 |①---|
②口①① |----|
口口口口 |②---|
口口口口 |----|
10
口①口口 |①---|
口②口口 |②---|
口③口口 |③---|
口④口口 |④---|
11
口口口口 |①---|
①口口② |----|
口口口口 |②---|
口口口口 |----|
12
口口①口 |①---|
口②口口 |②---|
口口③口 |③---|
口④口口 |④---|
13
口口口口 |①---|
口①②口 |----|
口口口口 |②---|
口口口口 |----|
14
口口口口 |①---|
口口口口 |----|
口①②口 |②---|
口口口口 |----|
15
口口口口 |①---|
②口口① |----|
口口口口 |②---|
口口口口 |----|
16
口①口口 |①---|
口口②口 |②---|
口③口口 |③---|
口口④口 |④---|
17
口口口口 |①---|
口①②口 |----|
口口口口 |②---|
口口口口 |----|
18
口口口口 |①---|
②口口② |----|
口口口口 |②---|
口①①口 |----|
19
口①口口 |①---|
口②口口 |----|
口口口口 |②---|
口口口口 |----|
20
口口口口 |①---|
口口口口 |----|
口口①口 |②---|
口口②口 |----|
21
口口①口 |①---|
口口②口 |----|
口口口口 |②---|
口口口口 |----|
22
口口口口 |①---|
口口口口 |----|
口①口口 |②---|
口②口口 |----|
23
口口口口 |①---|
①②口口 |----|
口口口口 |②---|
口口口口 |----|
24
口口口口 |①---|
口口口口 |----|
口口①② |②---|
口口口口 |----|
25
口口口口 |①---|
口口②① |----|
口口口口 |②---|
口口口口 |----|
26
口口口口 |①---|
口口口口 |----|
②①口口 |②---|
口口口口 |----|
27
口口口口 |①---|
①①口② |----|
口口口口 |②---|
口口口口 |----|
28
口口①口 |①---|
口口②口 |②---|
口口③口 |③---|
口④④口 |④---|
29
口口口口 |①---|
②口①① |----|
口口口口 |②---|
口口口口 |----|
30
口①口口 |①---|
口②口口 |②---|
口③口口 |③---|
口④④口 |④---|
31
口口口口 |①---|
①①口② |----|
口口口口 |②---|
口口口口 |----|
32
口口①口 |①---|
口口②口 |②---|
口口③口 |③---|
口④④口 |④---|
33
口口口口 |①---|
②口①① |----|
口口口口 |②---|
口口口口 |----|
34
口①口口 |①---|
口②口口 |②---|
口③口口 |③---|
口④④口 |④---|
35
口口④口 |①---|
口口③口 |②---|
①②口口 |③---|
口口口口 |④---|
36
①口口口 |①---|
口②口口 |②---|
③口口口 |③---|
口④口口 |④---|
37
口④口口 |①---|
口③口口 |②---|
口口②① |③---|
口口口口 |④---|
38
口口口① |①---|
口口②口 |②---|
口口口③ |③---|
口口④口 |④---|
39
口④④口 |①---|
口③口口 |②---|
口②口口 |③---|
口①口口 |④---|
40
口④④口 |①---|
口口③口 |②---|
口口②口 |③---|
口口①口 |④---|
41
④④口口 |①---|
③口口口 |②---|
②口口口 |③---|
①口口口 |④---|
42
口口④④ |①---|
口口口③ |②---|
口口口② |③---|
口口口① |④---|
43
口③口口 |①---|
口②口口 |②---③-|
口口口口 |----|
口①口口 |----|
44
口口口口 |①---|
口口口口 |②---|
口③②① |③---|
口口口口 |----|
45
口口③口 |①---|
口口②口 |②---③-|
口口口口 |----|
口口①口 |----|
46
口口口口 |①---|
口口口口 |②---|
①②③口 |③---|
口口口口 |----|
47
口③口口 |①---|
口②口口 |②---③-|
口口口口 |----|
口①口口 |----|
48
口口口口 |①---|
口口口口 |②---|
口③②① |③---|
口口口口 |----|
49
口口③口 |①---|
口口②口 |②---③-|
口口口口 |----|
口口①口 |----|
50
口口口口 |①---|
口②口④ |②---|
①口③口 |③---|
口口口口 |④---|
51
口口口④ |①---|
③口口口 |②---|
口口口② |③---|
①口口口 |④---|
52
口口口口 |①---|
②口口② |----|
口口口口 |②---|
口①①口 |----|
53
④口口口 |①---|
③口口口 |②---|
②口口口 |③---|
口①①口 |④---|
54
口口口④ |①---|
口口口③ |②---|
口口口② |③---|
口①①口 |④---|
55
①②③④ |①---|
口口口口 |②---|
口口口口 |③---|
口口口口 |④---|
56
口④④口 |①---|
口③③口 |②---|
口②②口 |③---|
口①①口 |④---|
57
口④口口 |①---|
口③口口 |②---|
口②口口 |③---|
口①①口 |④---|
58
口口④口 |①---|
口口③口 |②---|
口口②口 |③---|
口①①口 |④---|
59
口④口口 |①---|
口③口口 |②---|
口②口口 |③---|
口①①口 |④---|
60
口口④口 |①---|
口口③口 |②---|
口口②口 |③---|
口①①口 |④---|
61
④口口口 |①---|
③口口口 |②---|
②口口口 |③---|
口①①口 |④---|
62
口口口④ |①---|
口口口③ |②---|
口口口② |③---|
口①①口 |④---|
63
①②③④ |①---|
口口口口 |②---|
口口口口 |③---|
口口口口 |④---|
64
口④④口 |①---|
口③③口 |②---|
口②②口 |③---|
口①①口 |④---|
65
口④口口 |①---|
口③口口 |②---|
口②口口 |③---|
口①①口 |④---|
66
口口④口 |①---|
口口③口 |②---|
口口②口 |③---|
口①①口 |④---|
67
口④口口 |①---|
口③口口 |②---|
口②口口 |③---|
口①①口 |④---|
68
口④④口 |①---|
口③③口 |②---|
口②②口 |③---|
口①①口 |④---|
69
口口口口 |----|
口口口口 |----|
口口口口 |----|
口口口口 |----|
70
口④④口 |①---|
③口口口 |②---|
口②口口 |③---|
①口口口 |④---|
71
口④④口 |①---|
口口口③ |②---|
口口②口 |③---|
口口口① |④---|
72
口④④口 |①---|
口③口口 |②---|
口口②口 |③---|
口①口口 |④---|
73
口④④口 |①---|
口口③口 |②---|
口②口口 |③---|
口口①口 |④---|

accuracy: 100%
最終更新:2022年08月07日 02:09