アットウィキロゴ
MA・TSU・RI
かなたん,アマギセーラ,ぁゅ by BEMANI Sound Team "藤森崇多"

ADVANCED

Level: 6
BPM: 160
Notes: 409

1
口口口口 |----|
口口口口 |----|
口口口口 |----|
口口口口 |----|
2
口口口口 |①---|
口①①口 |----|
口①①口 |----|
口口口口 |----|
3
口口③口 |①-②-|
④②口⑤ |③---|
口口口口 |④---|
口①①口 |⑤---|
4
口口口口 |①---|
口②口④ |②---|
①口③口 |③---|
口口口口 |④---|
5
口口③口 |①-②-|
口②口口 |③---|
⑤口口④ |④---|
口①①口 |⑤---|
6
④口口① |①-②-|
⑤口口② |③---|
⑥口口③ |④-⑤-|
口口口口 |⑥---|
7
口口③口 |①-②-|
④②口⑤ |③---|
口口口口 |④---|
口①①口 |⑤---|
8
口口口口 |①---|
口②口④ |②---|
①口③口 |③---|
口口口口 |④---|
9
口口③口 |①-②-|
口②口口 |③---|
⑤口口④ |④---|
口①①口 |⑤---|
10
④口口① |①-②-|
⑤口口② |③---|
⑥口口③ |④-⑤-|
口口口口 |⑥---|
11
⑦①①口 |①-②-|
口口口口 |③-④-|
口④⑥② |⑤-⑥-|
⑤口③口 |--⑦-|
12
⑦⑤③① |①-②-|
⑧⑥④② |③-④-|
口口口口 |⑤-⑥-|
口口口口 |⑦-⑧-|
13
口⑥⑥口 |--①-|
口口口口 |②-③-|
口②③① |④-⑤-|
口④⑤口 |--⑥-|
14
⑤口口⑥ |--①-|
③口口④ |②-③-|
①口口② |④-⑤-|
口口口口 |⑥---|
15
⑦①①口 |①-②-|
口口口口 |③-④-|
口④⑥② |⑤-⑥-|
⑤口③口 |--⑦-|
16
⑦⑤③① |①-②-|
⑧⑥④② |③-④-|
口口口口 |⑤-⑥-|
口口口口 |⑦-⑧-|
17
口口口⑦ |--①-|
⑥口口⑤ |②-③-|
④口口③ |④-⑤-|
②口口① |⑥-⑦-|
18
⑤口口⑤ |--①-|
口口口口 |②-③-|
口①②口 |④---|
口③④口 |⑤---|
19
⑤口口口 |----|
口①③口 |①-②-|
口②④口 |③-④-|
口口口口 |⑤---|
20
口口口① |①---|
②口口③ |②---|
口口口④ |③-④-|
口口口⑤ |⑤---|
21
口口口口 |----|
口口口口 |①-②-|
①③⑤口 |③-④-|
②④⑥口 |⑤-⑥-|
22
口③②① |①-②-|
④⑤⑥口 |③---|
口口口口 |④-⑤-|
口口口口 |⑥---|
23
⑤口口口 |----|
口口口口 |①-②-|
口①③口 |③-④-|
口②④口 |⑤---|
24
口口口① |①---|
②口口③ |②---|
口口口④ |③-④-|
口口口⑤ |⑤---|
25
口①口口 |--①-|
口⑦②口 |②-③-|
口③⑥口 |④-⑤-|
口⑤④口 |⑥-⑦-|
26
①口口① |①---|
口口口口 |----|
口口口口 |----|
口②②口 |②---|
27
④④口③ |①-②-|
口口②口 |③---|
⑤⑤口① |④---|
口口口口 |⑤---|
28
口④④口 |①---|
口口口口 |②---|
口口②口 |③---|
口③口① |④---|
29
③口④④ |①-②-|
口②口口 |③---|
①口⑤⑤ |④---|
口口口口 |⑤---|
30
口④④口 |①---|
口口口口 |②---|
口②口口 |③---|
①口③口 |④---|
31
口口口③ |①-②-|
⑤⑤②口 |③---|
口口口① |④---|
④④口口 |⑤---|
32
口④④口 |①---|
口口口口 |②---|
口口②口 |③---|
口③口① |④---|
33
③口口口 |①-②-|
口②⑤⑤ |③---|
①口口口 |④---|
口口④④ |⑤---|
34
口④④口 |①---|
口口口口 |②---|
口②口口 |③---|
①口③口 |④---|
35
口④口口 |①---|
口③口口 |②---|
②口口口 |③---|
①口口口 |④---|
36
口口口① |①---|
口口②口 |②---|
口口口③ |③---|
口口④口 |④---|
37
口口④口 |①---|
口口③口 |②---|
口口口② |③---|
口口口① |④---|
38
①口口口 |①---|
口②口口 |②---|
③口口口 |③---|
口④口口 |④---|
39
口④口口 |①---|
口③口口 |②---|
②口口口 |③---|
①口口口 |④---|
40
口口口① |①---|
口口②口 |②---|
口口口③ |③---|
口口④口 |④---|
41
口口④口 |①---|
口口③口 |②---|
口口口② |③---|
口口口① |④---|
42
①口口口 |①---|
口②口口 |②---|
③口口口 |③---|
口④④口 |④---|
43
④口③口 |①---②-|
口②口① |③---④-|
口口口口 |----|
口口口口 |----|
44
口口口① |①---|
②口①口 |②---|
口②口③ |③---|
口口③口 |----|
45
口③口④ |①---②-|
①口②口 |③---④-|
口口口口 |----|
口口口口 |----|
46
①口口口 |①---|
口①口② |②---|
③口②口 |③---|
口③口口 |----|
47
④口③口 |①---②-|
口②口① |③---④-|
口口口口 |----|
口口口口 |----|
48
口口口① |①---|
②口①口 |②---|
口②口③ |③---|
口口③口 |----|
49
④口③口 |①---②-|
口②口① |③---④-|
口口口口 |----|
口口口口 |----|
50
④口口③ |①---|
口④③口 |②---|
②口口① |③---|
口②①口 |④---|
51
口口口口 |①---|
④口口② |②---|
口口口口 |③---|
③口口① |④---|
52
口③③口 |①---|
口③③口 |②---|
②口口② |③---|
口①①口 |----|
53
口③④口 |①---|
口⑤⑥口 |--②-|
①口口② |③-④-|
①口口② |⑤-⑥-|
54
口③口口 |①---|
②口④② |--②-|
口⑤口口 |--③-|
口①①口 |④-⑤-|
55
①口口① |①---|
口②②口 |----|
口③③口 |②---|
口口口口 |③---|
56
①口口① |①---|
口口④④ |②---|
③③口口 |③---|
口口②② |④---|
57
①口口① |①---|
口口口口 |----|
口②③口 |②---|
口口口口 |③---|
58
①口口① |①---|
口④口口 |②---|
口口③口 |③---|
口②口口 |④---|
59
①口③① |①---|
口口④口 |----|
口口口口 |②---|
口②口口 |③-④-|
60
口②口口 |①---|
口③口口 |②-③-|
口④①口 |④---|
口口⑤口 |⑤---|
61
口③④口 |①---|
口⑤⑥口 |--②-|
①口口② |③-④-|
①口口② |⑤-⑥-|
62
口③口口 |①---|
②口④② |--②-|
口⑤口口 |--③-|
口①①口 |④-⑤-|
63
①口口① |①---|
口②②口 |----|
口③③口 |②---|
口口口口 |③---|
64
①口口① |①---|
口口④④ |②---|
③③口口 |③---|
口口②② |④---|
65
①口口① |①---|
口口口口 |----|
口②③口 |②---|
口口口口 |③---|
66
①口口① |①---|
口④口口 |②---|
口口③口 |③---|
口②口口 |④---|
67
①口口① |①---|
口口口口 |----|
②口口② |②---|
③口口③ |③---|
68
⑥①②⑥ |①-②-|
口③④口 |③-④-|
口口口口 |⑤---|
⑤口口⑤ |⑥---|
69
口①①口 |----|
口口口口 |----|
口口口口 |----|
口口口口 |①---|
70
口口口口 |①---|
①口口口 |②---|
口④④② |③---|
③口口口 |④---|
71
口④④口 |①---|
口口口① |②---|
②口口口 |③---|
口口口③ |④---|
72
口口口口 |①---|
①口口口 |②---|
口④④② |③---|
③口口口 |④---|
73
①口口② |①---|
口①②口 |②---|
③口口④ |③---|
口③④口 |④---|

accuracy: 100%
最終更新:2022年08月07日 02:20