アットウィキロゴ
MA・TSU・RI
かなたん,アマギセーラ,ぁゅ by BEMANI Sound Team "藤森崇多"

EXTREME

Level: 9.0
BPM: 160
Notes: 669

1
口口口口 |----|
口口口口 |----|
口口口口 |----|
口口口口 |----|
2
口口口② |①---|
②口口口 |②---|
口口口口 |----|
口①①口 |----|
3
口②③④ |①-②③|
⑤口口⑥ |④-⑤-|
⑦口口⑧ |⑥-⑦-|
⑨①①口 |⑧-⑨-|
4
①⑤⑧③ |①-②-|
口⑦口口 |③-④-|
⑥②④⑨ |⑤-⑥⑦|
口口口口 |⑧-⑨-|
5
口口口⑤ |①-②③|
口口口② |④-⑤-|
口口③口
口①①④

口口口口
⑥口口口
口⑦口口 |⑥⑦⑧-|
⑧⑩⑨口 |⑨-⑩-|
6
①②口⑤ |①②③④|
口③④口 |⑤---|
口口口口
口口口口

口口口口
口口⑫⑪
⑩口⑦⑥ |⑥⑦⑧⑨|
口⑨⑧口 |⑩-⑪⑫|
7
口②③④ |①-②③|
⑤①口口 |④-⑤-|
⑦口口⑥ |⑥-⑦-|
⑨口口⑧ |⑧-⑨-|
8
①⑤⑧③ |①-②-|
口⑦口口 |③-④-|
⑥②④⑨ |⑤-⑥⑦|
口口口口 |⑧-⑨-|
9
口口口⑤ |①-②③|
口口口② |④-⑤-|
口口③口
口①①④

口口口口
⑥口口口
口⑦口口 |⑥⑦⑧-|
⑧⑩⑨口 |⑨-⑩-|
10
①②口⑤ |①②③④|
口③④口 |⑤---|
⑩口⑦⑥ |⑥⑦⑧⑨|
口⑨⑧口 |⑩---|
11
口①①⑨ |①-②③|
⑤⑧④口 |④-⑤-|
口③⑦口 |⑥⑦⑧-|
②口口⑥ |--⑨-|
12
①②口口 |①-②-|
口口④③ |③-④-|
⑤⑥口口 |⑤-⑥-|
口口⑧⑦ |⑦-⑧-|
13
⑧口口⑦ |--①-|
③⑥②口 |②-③-|
口口⑤口 |④⑤⑥-|
①口口④ |⑦-⑧-|
14
口口口口 |--①-|
⑤⑥口口 |②-③-|
口口④③ |④-⑤-|
①②口口 |⑥---|
15
口①①⑨ |①-②③|
⑤⑧④口 |④-⑤-|
口③⑦口 |⑥⑦⑧-|
②口口⑥ |--⑨-|
16
①②口口 |①-②-|
口口④③ |③-④-|
⑤⑥口口 |⑤-⑥-|
口口⑧⑦ |⑦-⑧-|
17
⑧口口⑦ |--①-|
③⑥②口 |②-③-|
口口⑤口 |④⑤⑥-|
①口口④ |⑦-⑧-|
18
⑤口口⑤ |--①-|
口口口口 |②-③-|
口③③口 |④---|
①④④② |⑤---|
19
口⑥⑥口 |①---|
口①①口 |②-③-|
②口④口 |④-⑤-|
口③口⑤ |⑥---|
20
口口口口 |①---|
口①①⑤ |②---|
④②②口 |③-④-|
口口口③ |⑤---|
21
口口口口 |①---|
口①①口 |②-③-|
口口口②
口口③口

口口口口
口⑥⑦口
⑤口口口 |④-⑤-|
口④口口 |⑥-⑦-|
22
口①④口 |①-②-|
②口口⑤ |③---|
口③⑥口 |④-⑤-|
口口口口 |⑥---|
23
口⑥⑥口 |①---|
口①①口 |②-③-|
②口④口 |④-⑤-|
口③口⑤ |⑥---|
24
口口口口 |①---|
口①①⑤ |②---|
④②②口 |③-④-|
口口口③ |⑤---|
25
口①口口 |--①-|
口⑦②口 |②-③-|
口③⑥口 |④-⑤-|
口⑤④口 |⑥-⑦-|
26
⑪④口① |①②③-|
⑩口⑤② |④⑤⑥⑦|
⑨⑥口③ |⑧-⑨⑩|
口⑧⑦口 |⑪---|
27
口口⑨⑧ |①-②-|
⑦①⑪⑩ |③④⑤⑥|
⑤⑥②⑫ |⑦-⑧⑨|
③④口口 |⑩⑪⑫-|
28
①⑦⑦口 |①-②-|
口②口口 |③-④-|
口口③口 |⑤-⑥-|
⑤⑧⑥④ |⑦-⑧-|
29
③口口口 |①-②-|
⑦④⑪⑧ |③④⑤⑥|
②⑩⑤① |⑦-⑧-|
⑨口口⑥ |⑨⑩⑪-|
30
⑥①口② |①-②-|
口⑤口口 |③④⑤⑥|
口口④口
口口口③

口⑩⑩口
口口口⑦
⑧口口口 |⑦⑧⑨-|
口口⑨口 |⑩---|
31
口口口口 |①-②-|
口②①口 |③④⑤⑥|
⑤⑥口口
③④口口

口口⑨⑧
⑦口⑪⑩
口口口⑫ |⑦-⑧⑨|
口口口口 |⑩⑪⑫-|
32
①⑦⑦口 |①-②-|
口②口口 |③-④-|
口口③口 |⑤-⑥-|
⑤⑧⑥④ |⑦-⑧-|
33
③口口口 |①-②-|
⑦④⑪⑧ |③④⑤⑥|
②⑩⑤① |⑦-⑧-|
⑨口口⑥ |⑨⑩⑪-|
34
⑥①口② |①-②-|
口⑤口口 |③④⑤⑥|
口口④口
口口口③

口⑩⑩口
口口口⑦
⑧口口口 |⑦⑧⑨-|
口口⑨口 |⑩---|
35
口口口② |①-②③|
①口③口 |④---|
⑤口④⑦ |⑤-⑥-|
口⑥⑧口 |⑦-⑧-|
36
①②④口 |①②③④|
③⑤⑦⑪ |⑤⑥⑦⑧|
⑥⑧⑨口 |⑨---|
口口口⑩ |⑩-⑪-|
37
⑤⑫⑥⑪ |①②③④|
口口口口 |⑤-⑥-|
③④⑨⑩ |⑦⑧⑨⑩|
①②⑦⑧ |⑪-⑫-|
38
⑩口口口 |①②③④|
①②④口 |⑤⑥⑦⑧|
③⑤⑦⑩ |⑨---|
⑥⑧⑨口 |⑩---|
39
口口口② |①-②③|
①口③口 |④---|
⑤口④⑦ |⑤-⑥-|
口⑥⑧口 |⑦-⑧-|
40
①②④口 |①②③④|
③⑤⑦⑪ |⑤⑥⑦⑧|
⑥⑧⑨口 |⑨---|
口口口⑩ |⑩-⑪-|
41
⑤⑫⑥⑪ |①②③④|
口口口口 |⑤-⑥-|
③④⑨⑩ |⑦⑧⑨⑩|
①②⑦⑧ |⑪-⑫-|
42
口⑩⑩口 |①②③④|
①②④口 |⑤⑥⑦⑧|
③⑤⑦口 |⑨---|
⑥⑧⑨口 |⑩---|
43
口口⑤⑤ |①---②-|
①②口口 |③---④-|
③④②① |----|
口口④③ |----⑤-|
44
口口口口 |①---②-|
①口②② |③---④-|
③口④④ |⑤---⑥-|
⑤口⑥⑥ |----|
45
⑤⑤口口 |①---②-|
口口②① |③---④-|
①②④③ |----|
③④口口 |----⑤-|
46
口口⑥⑥ |①---②-|
②②口① |③---④-|
④④口③ |⑤---|
⑥⑥口⑤ |⑥---|
47
口口⑤⑤ |①---②-|
①②口口 |③---④-|
③④②① |----|
口口④③ |----⑤-|
48
口口口口 |①---②-|
①口②② |③---④-|
③口④④ |⑤---⑥-|
⑤口⑥⑥ |----|
49
口口口口 |①---②-|
口口②① |③---④-|
①②④③ |----|
③④口口 |----|
50
②②④④ |①---②-|
⑥⑥⑧⑧ |③---④-|
①口口③ |⑤---⑥-|
⑤口口⑦ |⑦---⑧-|
51
②④②④ |①---②-|
⑥⑧⑥⑧ |③---④-|
口①③口 |⑤---⑥-|
口⑤⑦口 |⑦---⑧-|
52
口③③口 |①---|
口口口口 |②---|
①④④② |③---|
①口口② |④---|
53
①③⑤① |①---|
口⑤③口 |--②-|
口口口口 |③-④-|
④②②⑥ |⑤-⑥-|
54
③口口③ |①---|
口口口口 |②-③-|
口①①口
口②②口

口口口口
口⑤口口
④口⑤⑥ |--④-|
④口口⑥ |⑤-⑥-|
55
口①①口 |①---|
口口口口 |----|
口③③口 |②---|
口②②口 |③---|
56
③①口⑧ |①-②-|
①③口⑥ |③-④-|
⑦⑤口④ |⑤-⑥-|
⑤⑦口② |⑦-⑧-|
57
口口口口 |①---|
③①①② |----|
口③②口 |②---|
口口口口 |③---|
58
口②口① |①---|
③口②口 |②---|
口③口② |③---|
④口③口 |④---|
59
口口口口 |①---|
口①①口 |----|
口口口口
口口口口

口③口口
口口④口
口口口③ |②---|
口②②口 |③-④-|
60
口口口① |①---|
口②口④ |②-③-|
⑤①③⑤ |④---|
口④口② |⑤---|
61
①⑤③① |①---|
口③⑤口 |--②-|
口口口口 |③-④-|
⑥②②④ |⑤-⑥-|
62
③口口③ |①---|
口口口口 |②-③-|
口①①口
口②②口

口口口口
口口⑤口
⑥⑤口④ |--④-|
⑥口口④ |⑤-⑥-|
63
口①①口 |①---|
口口口口 |----|
口③③口 |②---|
口②②口 |③---|
64
⑧口③① |①-②-|
⑥口①③ |③-④-|
④口⑤⑦ |⑤-⑥-|
②口⑦⑤ |⑦-⑧-|
65
口口口口 |①---|
②①①③ |----|
口②③口 |②---|
口口口口 |③---|
66
①口②口 |①---|
口②口③ |②---|
②口③口 |③---|
口③口④ |④---|
67
口口口口 |①---|
口①①口 |----|
口口口口
口口口口

口口③口
口④口口
③口口口 |②---|
口②②口 |③-④-|
68
①口口口 |①---|
④口②口 |②-③-|
⑤③①⑤ |④---|
②口④口 |⑤---|
69
口①①口 |----|
口口口口 |----|
口口口口 |----|
口口口口 |①---|
70
②⑨⑧④ |①-②-|
⑤⑦⑦⑥ |③-④-|
③⑦⑦③ |⑤-⑥-|
①口口① |⑦-⑧⑨|
71
①⑦⑦口 |①-②-|
口口口口 |③-④-|
⑤口口④ |⑤---|
③⑥⑥② |⑥-⑦-|
72
②⑨⑧④ |①-②-|
⑤⑦⑦⑥ |③-④-|
③⑦⑦③ |⑤-⑥-|
①口口① |⑦-⑧⑨|
73
①口口③ |①---②-|
口⑥⑧口 |③---④-|
口⑤⑦口 |⑤---⑥-|
②口口④ |⑦---⑧-|

accuracy: 100%
最終更新:2022年08月07日 02:34