アットウィキロゴ
MOVE! (We Keep It Movin')
Jonny Dynamite!,Lisa - paint with stars -,Rio Hiiragi by BEMANI Sound Team "U1-ASAMi"

BASIC

Level: 2
BPM: 142
Notes: 187

1
口口口口 |----|
口口口口 |----|
口口口口 |----|
口口口口 |----|
2
①②口口 |①---|
口口口口 |----|
口口口口 |②---|
口口口口 |----|
3
口口①② |①---|
口口口口 |----|
口口口口 |②---|
口口口口 |----|
4
口口口口 |①---|
口②口口 |----|
口①口口 |②---|
口口口口 |----|
5
口口口口 |①---|
口口①口 |----|
口口②口 |②---|
口口口口 |----|
6
口口②① |①---|
口口口口 |----|
口口口口 |②---|
口口口口 |----|
7
②①口口 |①---|
口口口口 |----|
口口口口 |②---|
口口口口 |----|
8
口口口口 |①---|
口口②口 |----|
口口①口 |②---|
口口口口 |----|
9
口口口口 |①---|
口①口口 |----|
口②口口 |②---|
口口口口 |----|
10
口口口口 |①---|
①口口口 |----|
口口口口 |----|
口口口口 |----|
11
口口口口 |①---|
口口口① |----|
口口口口 |----|
口口口口 |----|
12
口口口口 |①---|
口口口口 |----|
①口口口 |----|
口口口口 |----|
13
口口口口 |①---|
口口口口 |----|
口口口① |----|
口口口口 |----|
14
口口口口 |①---|
口口口口 |----|
口①口口 |----|
口口口口 |----|
15
口口口口 |①---|
口口口口 |----|
口口①口 |----|
口口口口 |----|
16
口口口口 |①---|
口①口口 |----|
口口口口 |----|
口口口口 |----|
17
口口口口 |①---|
口口①口 |----|
口口口口 |----|
口口口口 |----|
18
①口口② |①---|
口口口口 |----|
口口口口 |②---|
口口口口 |----|
19
口口口口 |①---|
①口口② |----|
口口口口 |②---|
口口口口 |----|
20
口口口口 |①---|
口口口口 |----|
①口口② |②---|
口口口口 |----|
21
口口口口 |①---|
口口口口 |----|
口口口口 |②---|
①口口② |----|
22
口口口口 |①---|
口口口口 |----|
口口口口 |②---|
口①②口 |----|
23
口口口口 |①---|
口口口口 |----|
口①②口 |②---|
口口口口 |----|
24
口口口口 |①---|
口①②口 |----|
口口口口 |②---|
口口口口 |----|
25
①口口① |①---|
口口口口 |----|
口口口口 |----|
口口口口 |----|
26
口口口口 |①---|
口②口口 |----|
口①口口 |②---|
口口口口 |----|
27
口口口口 |①---|
①口口口 |----|
②口口口 |②---|
口口口口 |----|
28
口口口口 |①---|
口口②口 |----|
口口①口 |②---|
口口口口 |----|
29
口口口口 |①---|
口口口① |----|
口口口② |②---|
口口口口 |----|
30
口口口口 |①---|
口②口口 |----|
口①口口 |②---|
口口口口 |----|
31
口口口口 |①---|
①口口口 |----|
②口口口 |②---|
口口口口 |----|
32
口口口口 |----|
口①①口 |①---|
口②②口 |②---|
口口口口 |----|
33
①②②① |①---|
口③③口 |--②-|
口口口口 |--③-|
口口口口 |----|
34
口口口口 |①---|
口口②口 |----|
口口①口 |②---|
口口口口 |----|
35
口②②口 |①---|
口口口① |----|
口口口口 |②---|
口口口口 |----|
36
口口口口 |①---|
口②口口 |----|
口①口口 |②---|
口口口口 |----|
37
口②②口 |①---|
①口口口 |----|
口口口口 |②---|
口口口口 |----|
38
口口口口 |①---|
口口②口 |----|
口口①口 |②---|
口口口口 |----|
39
口②②口 |①---|
口口口① |----|
口口口口 |②---|
口口口口 |----|
40
口口口口 |----|
口口口口 |①---|
口①①口 |----|
口口口口 |----|
41
①②②① |①---|
口③③口 |--②-|
口口口口 |--③-|
口口口口 |----|
42
①口口② |①---|
③口口④ |②---|
口口口口 |③---|
口口口口 |④---|
43
口口口口 |①---|
口口口口 |②---|
①口口② |③---|
③口口④ |④---|
44
口口口口 |①---|
口口口口 |②---|
口③④口 |③---|
口①②口 |④---|
45
口③④口 |①---|
口①②口 |②---|
口口口口 |③---|
口口口口 |④---|
46
②口口② |①---|
口口口口 |----|
口①①口 |②---|
口口口口 |----|
47
口②②口 |①---|
口口口口 |----|
①口口① |②---|
口口口口 |----|
48
②口口② |①---|
口口口口 |----|
口①①口 |②---|
口口口口 |----|
49
口②②口 |①---|
口口口口 |----|
①口口① |②---|
口口口口 |----|
50
②口口② |①---|
口口口口 |----|
口①①口 |②---|
口口口口 |----|
51
口②②口 |①---|
口口口口 |----|
①口口① |②---|
口口口口 |----|
52
②口口② |①---|
口口口口 |----|
口①①口 |②---|
口口口口 |----|
53
口口口口 |①---|
口②②口 |----|
①口口① |----|
口口口口 |②---|
54
①口口② |①---|
③口口④ |②---|
口口口口 |③---|
口口口口 |④---|
55
口③④口 |①---|
口①②口 |②---|
口口口口 |③---|
口口口口 |④---|
56
①口口② |①---|
③口口④ |②---|
口口口口 |③---|
口口口口 |④---|
57
口③④口 |①---|
口①②口 |②---|
口口口口 |③---|
口口口口 |④---|
58
口口口口 |①---|
口口②口 |----|
口口①口 |②---|
口口口口 |----|
59
口②②口 |①---|
口口口① |----|
口口口口 |②---|
口口口口 |----|
60
①口口① |----|
口②③口 |①---|
口口口口 |②---|
口口口口 |③---|
61
口口口口 |①---|
口口口口 |②---|
口①②口 |③---|
口③④口 |④---|
62
口口口口 |①---|
口口②口 |----|
口口①口 |②---|
口口口口 |----|
63
口②②口 |①---|
口口口① |----|
口口口口 |②---|
口口口口 |----|
64
口口口口 |①---|
口②口口 |----|
口①口口 |②---|
口口口口 |----|
65
口②②口 |①---|
①口口口 |----|
口口口口 |②---|
口口口口 |----|
66
口口口口 |①---|
口口②口 |----|
口口①口 |②---|
口口口口 |----|
67
口②②口 |①---|
口口口① |----|
口口口口 |②---|
口口口口 |----|
68
口口口口 |----|
口口口口 |①---|
口①①口 |----|
口口口口 |----|
69
①③③① |①---|
口②②口 |--②-|
口口口口 |--③-|
口口口口 |----|
70
口口口口 |①---|
口口口口 |----|
口①①口 |----|
口口口口 |----|
71
口口口口 |----|
口口口口 |----|
口口口口 |----|
口口口口 |----|

accuracy: 100%
最終更新:2022年07月21日 18:09