アットウィキロゴ
MOVE! (We Keep It Movin')
Jonny Dynamite!,Lisa - paint with stars -,Rio Hiiragi by BEMANI Sound Team "U1-ASAMi"

ADVANCED

Level: 6
BPM: 142
Notes: 433

1
口口口口 |----|
口口口口 |----|
口口口口 |----|
口口口口 |----|
2
⑥口口③ |①--②|
口①②口 |--③-|
口⑤④口 |④--⑤|
口口口口 |--⑥-|
3
口口口③ |①--②|
口①②口 |--③-|
④口口④ |④---|
口口口口 |----|
4
①口口⑥ |①--②|
②口口⑤ |--③-|
③口口④ |④--⑤|
口口口口 |--⑥-|
5
①口口⑥ |①--②|
②口口⑤ |--③-|
③口口④ |④--⑤|
口口口口 |--⑥-|
6
③口口⑥ |①--②|
口②①口 |--③-|
口④⑤口 |④--⑤|
口口口口 |--⑥-|
7
③口⑤口 |①--②|
口②①口 |--③-|
④口口④ |④---|
口口口口 |⑤---|
8
口口口口 |①-②-|
③①②④ |③-④-|
⑦⑤⑥⑧ |⑤-⑥-|
口口口口 |⑦-⑧-|
9
口口口口 |①-②-|
口口口④ |③-④-|
口口③口
口①②口

口口⑤口
⑥⑦口口
口口⑨⑧ |⑤-⑥⑦|
口口口口 |-⑧⑨-|
10
①口口① |①---|
口②口口 |----|
口口口口 |②---|
口口口口 |----|
11
口口口口 |①---|
口口口口 |----|
口①口口 |②---|
口②口口 |----|
12
口口口口 |①---|
①口口① |----|
口口②口 |②---|
口口口口 |----|
13
口口②口 |①---|
口口①口 |----|
口口口口 |②---|
口口口口 |----|
14
①口口① |①---|
口②口口 |----|
口口口口 |②---|
口口口口 |----|
15
口口口口 |①---|
口口口口 |----|
口①口口 |②---|
口②口口 |----|
16
口口口口 |①---|
口口口口 |----|
①口②① |②---|
口口口口 |----|
17
⑦⑤⑤⑦ |①-②-|
①口口③ |③-④-|
口②④口 |⑤-⑥-|
⑧⑥⑥⑧ |⑦-⑧-|
18
口口口口 |①---|
口①①口 |----|
口②口口 |②---|
口口口口 |----|
19
口②口口 |①---|
①口口口 |----|
口口口口 |②---|
口口口口 |----|
20
口口口口 |①---|
口①①口 |----|
口口②口 |②---|
口口口口 |----|
21
口口口口 |①---|
口口口① |----|
口口口口 |②---|
口口口② |----|
22
口口口口 |①---|
口①①口 |----|
口②口口 |②---|
口口口口 |----|
23
口②口口 |①---|
①口口口 |----|
口口口口 |②---|
口口口口 |----|
24
口口口口 |①---|
口①①口 |----|
口口②口 |②---|
口口口口 |----|
25
②口口② |①---|
口口口① |②---|
口③③口 |③---|
口④口口 |④---|
26
⑥口口③ |①---②-|
口①②口 |--③---|
口⑤④口 |④---⑤-|
口口口口 |--⑥---|
27
口口口③ |①---②-|
口①②口 |--③---|
④口口④ |④---|
口⑤⑤口 |--⑤---|
28
⑥口口③ |①---②-|
口①②口 |--③---|
口⑤④口 |④---⑤-|
口口口口 |--⑥---|
29
口口口③ |①---②-|
口①②口 |--③---|
④口口④ |④---|
口口口口 |----|
30
⑥口口③ |①---②-|
口①②口 |--③---|
口⑤④口 |④---⑤-|
口口口口 |--⑥---|
31
口口口③ |①---②-|
口①②口 |--③---|
④口口④ |④---|
口口口口 |----|
32
口口口口 |----|
口①①③ |①---|
口②②口 |②---|
口口口口 |--③---|
33
口口口④ |①-②-|
③口口口 |③-④-|
口⑤⑤② |----|
①口口口 |⑤---|
34
⑥①口③ |①---②-|
口①②口 |--③---|
口⑤④口 |④---⑤-|
口口④口 |--⑥---|
35
口①口③ |①---②-|
口①②口 |--③---|
④口口④ |④---|
口⑤⑤口 |--⑤---|
36
⑥①⑥③ |①---②-|
口①②口 |--③---|
口⑤④口 |④---⑤-|
口口④口 |--⑥---|
37
口①口③ |①---②-|
口①②口 |--③---|
④口口④ |④---|
口口口口 |----|
38
⑥①口③ |①---②-|
口①②口 |--③---|
口⑤④口 |④---⑤-|
口口④口 |--⑥---|
39
口①口③ |①---②-|
口①②口 |--③---|
④口口④ |④---|
口口口口 |----|
40
口①①口 |----|
口口口口 |①---|
口口口口 |②---|
口②②口 |----|
41
口口口② |①-②-|
①③③口 |--③-|
口④④口 |--④-|
口口口口 |----|
42
口口口口 |①---|
①口口口 |②---|
口口口口
口②口口

⑥口口⑤
④口口③
口口口口 |③-④-|
口口口口 |⑤-⑥-|
43
口口②口 |①---|
口口口口 |②---|
口③④① |③-④-|
口⑤口口 |⑤---|
44
②⑤④口 |①---|
口①口口 |②---|
口⑥③口 |③-④-|
口口口口 |⑤-⑥-|
45
口口口口 |①---|
口②②口 |②---|
口口口口
口口口①

③③③③
口口口口
口口⑤口 |③-④-|
口④口⑥ |⑤-⑥-|
46
⑧⑥⑤⑦ |①-②-|
①④③① |③-④-|
口②口口 |⑤-⑥-|
口口口口 |⑦-⑧-|
47
口口口口 |①-②-|
口口口口 |③-④-|
⑦⑧⑥⑤ |⑤-⑥-|
③④②① |⑦-⑧-|
48
②口口① |①-②-|
④口口③ |③-④-|
⑥口口⑤ |⑤-⑥-|
⑧口口⑦ |⑦-⑧-|
49
口②①口 |①-②-|
口④③口 |③-④-|
口⑥⑤口 |⑤-⑥-|
口⑧⑦口 |⑦-⑧-|
50
②口口口 |①---|
口①口⑤ |②---|
口口③④ |③---|
口口口口 |④-⑤-|
51
口③①① |①-②-|
口口④口 |③-④-|
口②口口
口口口口

口口口⑧
⑦口口口
口口口⑥ |⑤-⑥-|
⑤口口口 |⑦-⑧-|
52
⑤口④口 |①-②-|
口③口⑥ |③-④-|
⑦口②口 |⑤-⑥-|
口①口⑧ |⑦-⑧-|
53
口①口口 |①-②-|
口口②⑥ |③-④-|
⑥③口口 |⑤---|
口⑤④口 |⑥---|
54
①口口⑤ |①-②-|
③⑦②口 |③-④-|
口口⑥口 |⑤-⑥-|
⑧④口① |⑦-⑧-|
55
③口①口 |①-②-|
⑦口口⑤ |③-④-|
口④口② |⑤-⑥-|
口⑧⑥口 |⑦-⑧-|
56
口口①口 |①-②-|
⑦③⑤口 |③-④-|
口口口② |⑤-⑥-|
④⑧口⑥ |⑦-⑧-|
57
⑤⑥②① |①-②-|
口口口口 |③-④-|
④③⑦⑧ |⑤-⑥-|
口口口口 |⑦-⑧-|
58
口口口⑤ |①-②-|
③⑦②口 |③-④-|
口口⑥口 |⑤-⑥-|
⑧④口① |⑦-⑧-|
59
③口①口 |①-②-|
⑦口口⑤ |③-④-|
口④口② |⑤-⑥-|
口⑧⑥口 |⑦-⑧-|
60
⑦口①⑤ |①-②-|
口③口口 |③-④-|
口⑧⑥② |⑤-⑥-|
④口口口 |⑦-⑧-|
61
口口口口 |①-②-|
口口口口 |③-④-|
⑧⑦⑥⑤ |⑤-⑥-|
④③②① |⑦-⑧-|
62
⑧①口④ |①---②-|
③①②口 |③-④-|
口⑥⑤⑦ |⑤--⑥|
口口⑤口 |⑦-⑧-|
63
口①口④ |①--②|
③①口口 |③-④-|
⑤口②⑤ |⑤---|
⑥口口⑥ |⑥---|
64
⑧①口④ |①--②|
③①②口 |③-④-|
口⑥⑤⑦ |⑤--⑥|
口口⑤口 |⑦-⑧-|
65
口①口④ |①--②|
③①②口 |③-④-|
⑥口口⑥ |⑤---|
⑤口口⑤ |⑥---|
66
⑧①口④ |①--②|
③①②⑦ |③-④-|
口⑥⑤口 |⑤--⑥|
口口⑤口 |⑦-⑧-|
67
口①口④ |①--②|
③①②口 |③-④-|
口⑦⑧口 |⑤-⑥-|
口⑤⑥口 |⑦-⑧-|
68
①②②① |①---|
口口口口 |②---|
口④口口 |③---|
口③③口 |④---|
69
口口口② |①-②-|
①③③口 |--③-|
口④④口 |--④-|
口口口口 |----|
70
口口口① |①---|
口口口口 |----|
口口口口 |----|
①口口口 |----|
71
口口口口 |----|
口口口口 |----|
口口口口 |----|
口口口口 |----|

accuracy: 100%
最終更新:2022年07月21日 18:09