アットウィキロゴ
MOVE! (We Keep It Movin')
Jonny Dynamite!,Lisa - paint with stars -,Rio Hiiragi by BEMANI Sound Team "U1-ASAMi"

EXTREME

Level: 9.6
BPM: 142
Notes: 818

1
口口口口 |----|
口口口口 |----|
口口口口 |----|
口口口口 |----|
2
④⑥③① |①--②|
⑥⑤②③ |--③-|
口④①口 |④--⑤|
口口口口 |--⑥-|
3
口④③① |①--②|
④口②③ |--③-|
⑥⑤①口 |④--⑤|
口口口口 |--⑥-|
4
④口口① |①--②|
口口口口 |--③-|
⑥⑤②③ |④--⑤|
口口口口 |--⑥-|
5
④口口① |①--②|
口口口口 |--③-|
⑥⑤②③ |④--⑤|
口口口口 |--⑥-|
6
④口口① |①--②|
①⑥③④ |--③-|
口⑥③口 |④--⑤|
⑤②⑤② |--⑥-|
7
口口口① |①--②|
①口③口 |--③-|
口口③口
口②口②

⑨④④⑥
⑦口口⑩
口⑤口口 |④⑤⑥⑦|
口⑪⑧口 |⑧⑨⑩⑪|
8
口口⑤口 |①②③④|
⑥④⑦口 |⑤⑥⑦⑧|
口⑧③口
②口口①

⑨⑩⑬口
口口口口
口口⑫⑪ |-⑨⑩-|
口口口口 |⑪⑫-⑬|
9
⑤⑤口② |①②③④|
①口⑥⑥ |⑤-⑥-|
口口口口
口③口④

口口⑨口
口⑪口口
⑦⑦⑧口 |⑦-⑧⑨|
口⑩口口 |-⑩⑪-|
10
口口口口 |①--②|
⑥口口③ |--③-|
⑤口口② |④--⑤|
口④①口 |--⑥-|
11
口口口口 |①--②|
⑥口口③ |--③-|
⑤口口② |④--⑤|
口④①口 |--⑥-|
12
口口口口 |①--②|
⑤口口② |--③-|
口④①口 |④--⑤|
⑥口口③ |--⑥-|
13
口口口口 |①--②|
⑤口口② |--③-|
口④①口 |④--⑤|
⑥口口③ |--⑥-|
14
⑤②⑤② |①--②|
口④①口 |--③-|
口口口口 |④--⑤|
⑥③⑥③ |--⑥-|
15
⑤②⑤② |①--②|
口④①口 |--③-|
口口口口 |④--⑤|
⑥③⑥③ |--⑥-|
16
⑤口口② |①--②|
⑤口口② |--③-|
口④①口 |④--⑤|
⑥口口③ |--⑥-|
17
口口口① |①②③④|
口口②口 |⑤⑥⑦⑧|
⑧口⑥③
口⑦④⑤

⑨⑩⑪⑫
⑬⑭⑮⑯
口口口口 |⑨⑩⑪⑫|
口口口口 |⑬⑭⑮⑯|
18
④②③④ |①--②|
口⑥口口 |--③-|
⑤②③口 |④--⑤|
①口口① |--⑥-|
19
⑤⑥口口 |①--②|
口口③口 |--③-|
口⑦口② |④-⑤⑥|
口④①口 |--⑦-|
20
口口口口 |①--②|
口口口② |--③-|
口口口口
口口①③

口口口口
⑤口口口
口④口口 |④--⑤|
⑧⑦⑥口 |⑥⑦⑧-|
21
①②③④ |①②③④|
⑩口口口 |⑤⑥⑦⑧|
⑤⑥⑦⑧ |⑨--⑩|
⑪口⑨口 |--⑪-|
22
口②口② |①--②|
口口①① |--③-|
口口口口
口③口③

⑧口⑧口
口⑤口⑦
④口⑥口 |④⑤⑥⑦|
口口口口 |--⑧-|
23
⑥口口口 |①--②|
⑥⑤③口 |--③-|
口①口② |④-⑤⑥|
⑦④⑦口 |--⑦-|
24
⑦①口③ |①-②③|
⑦⑥②③ |--④-|
口⑤口口 |⑤-⑥⑦|
⑩⑨⑧④ |⑧⑨⑩-|
25
口口③① |①-②-|
口口口口 |③-④-|
口口口口
口口④②

口⑤口⑦
口口口口
⑧口口口 |⑤-⑥-|
口⑥口⑨ |⑦--⑧-⑨--|
26
①④①④ |①---②-|
⑥②⑤⑥ |--③---|
口③③口 |④---⑤-|
口口口口 |--⑥---|
27
①⑤①③ |①---②-|
口⑥⑥口 |③-④-⑤-|
口④口② |⑥---⑦-|
⑦⑦⑧⑧ |--⑧---|
28
①⑦①⑦ |①-②③④⑤|
②③④⑤ |--⑥-|
⑨⑥⑥口 |⑦---⑧-|
⑨口⑧⑧ |--⑨---|
29
①③②⑧ |①--②③-|
⑨⑤④⑨ |④⑤-⑥⑦-|
⑨①⑧⑨ |⑧---|
口⑦⑥口 |⑨---|
30
①②①⑤ |①---②-|
④③③⑤ |--③---|
④口⑥口 |④---⑤-|
口口⑥口 |--⑥---|
31
①口①口 |①---②-|
口③口⑤ |③-④-⑤-|
口②口④
口口口口

⑦⑦口⑥
口口口口
口口⑥口 |⑥---⑦-|
口口⑧⑧ |--⑧---|
32
口口口口 |-①②③④-|
①②③④ |----|
口口口口
口口口口

口口口⑦
口口口⑦
⑤口⑥口 |⑤---⑥-|
⑤口⑥口 |--⑦---|
33
①③②⑧ |①--②③-|
⑨⑤④⑨ |④⑤-⑥⑦-|
⑨①⑧⑨ |⑧---|
口⑦⑥口 |⑨---|
34
①④①④ |①---②-|
口③③口 |--③---|
口②⑤口 |④---⑤-|
口⑥⑥口 |--⑥---|
35
①口①口 |①---②-|
②口口④ |③-④-⑤-|
口③⑤口
口口口口

口口⑦⑦
口⑥⑥口
口口口口 |⑥---⑦-|
口⑧⑧口 |--⑧---|
36
①口口口 |①-②③④⑤|
②③④⑤ |----|
口①口口
口口口口

口口口⑧
口口口⑧
⑦口⑥口 |⑥---⑦-|
⑦口⑥口 |--⑧---|
37
①③②⑧ |①--②③-|
⑨⑤④⑨ |④⑤-⑥⑦-|
⑨①⑧⑨ |⑧---|
口⑦⑥口 |⑨---|
38
①口①⑥ |①---②-|
口③③⑥ |--③---|
⑤②④口 |④---⑤-|
⑤口④口 |--⑥---|
39
①口①口 |①---②-|
口③⑤口 |③-④-⑤-|
口②④口
口口口口

⑦⑦口⑥
口口口口
口口口口 |⑥---⑦-|
口⑧⑧口 |--⑧---|
40
口口口口 |--①②③④|
①②③④ |----|
口口口口
口口口口

口口口⑦
口口口⑦
⑥口口⑤ |⑤---⑥-|
⑥口口⑤ |--⑦---|
41
①③②口 |①--②③-|
口⑤④口 |④⑤-⑥⑦-|
口①口口
口⑦⑥口

口口口口
⑪口⑬⑨
⑩口⑫⑧ |⑧-⑨-⑩-|
口口口口 |⑪-⑫-⑬-|
42
①⑥口口 |--①②|
口②口⑤ |③④⑤⑥|
口④口口
口口口③

⑪口口⑩
口口口口
口口口口 |-⑦⑧⑨|
⑨⑧⑦口 |⑩⑪--|
43
口③③口 |①-②③|
⑤①①口 |-④⑤⑥|
口⑥②口
口口口④

⑩口口⑧
口口⑨⑪
⑫口口口 |⑦-⑧⑨|
口口⑦⑬ |⑩⑪⑫⑬|
44
口③②口 |①-②③|
口①口口 |--④-|
口口①④
④②③口

口口口⑥
⑥口⑧⑤
⑤口口口 |⑤-⑥-|
口⑦口口 |⑦-⑧-|
45
①口①口 |①-②-|
口④口口 |③-④-|
口②口口
③口③口

⑦⑤⑧⑤
口口⑥口
口口⑤口 |⑤---|
口⑥口⑥ |⑥-⑦⑧|
46
⑪⑨口⑦ |①②③④|
⑤口⑫⑥ |⑤-⑥⑦|
口③⑩④ |-⑧-⑨|
①⑧②口 |-⑩⑪⑫|
47
口⑦⑧⑥ |①②③④|
口⑤口④ |⑤⑥⑦⑧|
①③口口
口口②口

口口口口
⑪口⑪口
口⑫口口 |⑨⑩-⑪|
⑨口口⑩ |-⑫--|
48
⑨口②① |①②③④|
⑩④口③ |⑤⑥⑦⑧|
⑪口⑥⑤ |⑨-⑩-|
⑫⑧口⑦ |⑪-⑫-|
49
口③口口 |①②-③|
口口口① |④-⑤-⑥-|
口②口口
口⑤④⑥

口口口口
⑨⑧⑦口
口⑩⑪⑫ |⑦-⑧-⑨-|
口口口口 |⑩-⑪-⑫-|
50
②①①② |①---|
⑤口④⑦ |②--③|
口⑥口口 |④---|
口③口⑤ |⑤-⑥⑦|
51
⑧①①⑩ |①-②-|
口④⑤⑦ |③-④⑤|
③⑨③口 |⑥-⑦⑧|
⑥②②口 |--⑨⑩|
52
口⑥⑤口 |--①-|
④①口口 |②③④-|
口口①③ |⑤⑥⑦⑧|
②⑧⑦口 |----|
53
①⑥口② |①②③④|
③⑦⑤④ |⑤-⑥⑦|
口⑤⑦口
口口⑥口

口口口口
⑧口口口
口口口⑧ |----|
口口口口 |⑧---|
54
口口①① |①-②③|
⑤口口② |④-⑤⑥|
③口口⑥
口口④④

口口⑩⑩
口⑨⑫口
口⑪⑧口 |⑦-⑧⑨|
⑦⑦口口 |⑩-⑪⑫|
55
①①口口 |①-②③|
②口口⑤ |④-⑤⑥|
⑥口口③
④④口口

⑬⑪⑩⑩
口⑨口口
口口⑧⑫ |⑦-⑧⑨|
口口⑦⑦ |⑩⑪⑫⑬|
56
口口口口 |①②③④|
⑥口⑦① |⑤⑥⑦⑧|
④⑧口口
②口③⑤

⑨⑩口口
口口口口
口口⑫⑪ |-⑨⑩-|
口口⑬口 |⑪⑫-⑬|
57
⑤⑤口② |①②③④|
①口⑥⑥ |⑤-⑥-|
口口口口
口③口④

口口⑨⑪
口口口口
⑦⑦⑧⑩ |⑦-⑧⑨|
口口口口 |-⑩⑪-|
58
①①⑤⑤ |①--②|
④口口⑧ |-③④-|
口③⑦口 |⑤--⑥|
②②⑥⑥ |-⑦⑧-|
59
①①⑦⑥ |①--②|
④⑤⑤口 |-③④-|
口③口口 |⑤-⑥⑦|
②②⑧口 |--⑧-|
60
①口口⑤ |①-②③|
③④⑧⑦ |--④-|
口②⑥口 |⑤-⑥⑦|
口口口口 |--⑧-|
61
⑤口②口 |①②③④|
①③口口 |⑤⑥⑦⑧|
口⑦⑧⑥
口口④口

⑮⑨⑫⑭
口口口⑩
⑬口口⑯ |⑨⑩⑪⑫|
口⑪口口 |⑬⑭⑮⑯|
62
口口口口 |①-②③|
④①口⑥ |④⑤⑥-|
口②⑤口
口口③③

⑦⑦口口
⑫口⑩口
口⑪口⑧ |⑦-⑧⑨|
⑨⑨口口 |⑩⑪⑫-|
63
口④①① |①-②③|
口口口⑥ |④⑤⑥-|
②口⑤口
口口③③

口口口⑨
⑧⑦⑦口
口口口⑨ |⑦-⑧-|
口口⑩口 |⑨-⑩-|
64
①①口口 |①-②③|
⑥口②④ |④⑤⑥-|
口⑤口口
③③口口

口口⑦⑦
口⑧口⑫
⑩口⑪口 |⑦-⑧⑨|
口口⑨⑨ |⑩⑪⑫-|
65
①①④口 |①-②③|
⑥口口口 |④⑤⑥-|
口⑤口②
③③口口

⑨⑩口口
口⑦⑦口
⑨口口口 |⑦-⑧-|
口口⑧口 |⑨-⑩-|
66
口口口口 |①-②③|
⑥口④① |④⑤⑥-|
口⑤口②
③③口口

口口⑦⑦
口⑩口⑫
⑧口⑪口 |⑦-⑧⑨|
口口⑨⑨ |⑩⑪⑫-|
67
①①②口 |①-②③|
⑥口口口 |④⑤⑥-|
口⑤口④
③③口口

⑪⑨⑫⑧
口⑦⑦口
口口⑩口 |⑦⑧⑨⑩|
口⑬⑭口 |⑪⑫⑬⑭|
68
口⑤口口 |①②③④|
①⑦④⑥ |⑤⑥⑦⑧|
口③⑧口
口口口②

口⑬⑩⑨
口口口口
⑪⑫口口 |-⑨⑩-|
口口口口 |⑪⑫-⑬|
69
④口⑤⑤ |①②③④|
⑥⑥口① |⑤-⑥-|
口口口口
口②③口

口⑨口口
口口⑪口
口⑧⑦⑦ |⑦-⑧⑨|
口口⑩口 |-⑩⑪-|
70
①口①口 |①--②|
口②口② |--③-|
③口③口
口口口口

⑤口口口
口⑥④⑥
口口口⑤ |④--⑤|
口④口口 |--⑥-|
71
口②①口 |①--②|
①口口口 |--③-|
口③③口
口口②口

⑤口⑤口
口口口④
④口口口 |④--⑤|
口⑥⑥口 |--⑥-|

accuracy: 100%
最終更新:2022年07月21日 18:09