アットウィキロゴ
Boomy and The Boost
Eagle

EXTREME

Level: 10.7
BPM: 174
Notes(hold): 1060(82)

1
口口②口 |----|
口口①口 |----|
口口口口 |----|
口口口口 |--①②|
2
口口口① |①-②-|
①口口口 |③-④-|
口口③口 |----|
口②②④ |----|
3
口口口口 |①-②-|
口口口② |③-④-|
口口③口 |----|
①口口④ |--⑤⑥|

口口口口
口口⑥⑤
口口口口
口口口口
4
口口①口 |①-②-|
②口口口 |③-④-|
口口口④ |----|
口③口口 |----|
5
口口②口 |----|
口口①口 |----|
口口口口 |----|
口口口口 |--①②|
6
口口口① |①-②-|
口口口口 |③-④-|
口口③口 |----|
口②口④ |----|
7
口口口口 |①-②-|
口口口② |③-④-|
①口③口 |----|
口口口④ |--⑤⑥|

口口口口
口口⑥⑤
口口口口
口口口口
8
口口①口 |①-②-|
②口口口 |③-④-|
口口口④ |----|
口③口口 |----|
9
口③口① |①-②-|
口④②口 |③-④-|
①口口③ |⑤-⑥-|
口口④口 |⑦-⑧⑨|

⑥口⑨口
⑦口⑧⑥
口口口口
口口口⑤
10
⑤③口① |①-②-|
⑥④口口 |③-④-|
①⑦③口 |--⑤-|
口口②④ |⑥-⑦-|
11
口③②口 |①-②-|
口④口③ |③-④-|
①口口① |--⑤-|
口口④口 |⑥⑦⑧⑨|

⑤口口口
口口口口
⑥⑦⑧⑨
口口口口
12
口口②④ |①-②-|
口④口① |③-④-|
口口口口 |--⑤-|
口口③口 |⑥⑦⑧⑨|

⑤口口口
口口⑥口
口⑦⑧口
口⑨口口
13
口②⑤口 |①---|
口③口口 |②-③-|
⑥⑦⑧⑨ |④-⑤-|
④口①口 |⑥⑦⑧⑨|
14
⑤③口口 |①-②-|
⑥④③① |③-④-|
口⑦口口 |--⑤-|
口①②④ |⑥-⑦-|
15
口③口口 |①-②-|
口④口② |③-④-|
①口③① |--⑤-|
口口口④ |⑥-⑦⑧|

⑤口口口
⑥口⑧⑦
口⑦口口
口口口口
16
口③①④ |①-②-|
口④口口 |③-④-|
①口②口 |⑤-⑥-|
口口口③ |⑦⑧⑨⑩|

⑤口口口
口口口口
⑦⑧⑨⑩
口⑥口口
17
口口③口 |①-②-|
②⑥⑤① |③-④-|
口口口口 |⑤-⑥-|
④⑧⑦口 |⑦-⑧-|
18
②⑧口④ |①---|
⑤口⑦口 |②-③-|
①⑥③① |④-⑤⑥|
②口口④ |⑦-⑧-|
19
③⑨口⑤ |①-②-|
⑥③⑧口 |③-④-|
口⑦④① |⑤-⑥⑦|
②②口⑤ |⑧-⑨-|
20
②⑧口④ |①---|
⑤口⑦口 |②-③-|
①⑥口① |④-⑤⑥|
②口③④ |⑦-⑧-|
21
③⑨口⑤ |①-②-|
⑥③⑧口 |③-④-|
口⑦④① |⑤-⑥⑦|
②②口⑤ |⑧-⑨-|
22
口口⑧口 |①---|
③⑦④⑤ |②-③-|
①④⑥① |④-⑤⑥|
②⑤③② |⑦-⑧-|
23
③①口③ |①-②-|
口口口口 |③-④-|
②口口② |⑤-⑥⑦|
④口口④ |⑧-⑨-|

口⑨口口
⑥⑤⑧口
口⑦⑤口
口口⑥口
24
口口④口 |①②③④|
口⑤口② |⑤⑥⑦⑧|
③口⑥口 |⑨⑩⑪⑫|
⑦①口⑧ |⑬⑭⑮⑯|

⑬⑮口口
⑨口⑩⑭
⑯⑪口口
口口⑫口
25
口口①① |①-②-|
③③口口 |--③-|
口口②② |④---|
④④口口 |----|
26
⑥口④⑤ |①-②-|
③③⑦⑧ |③-④⑤|
②②①① |--⑥-|
口口口口 |⑦⑧--|
27
口①口口 |①--②|
③口口口 |--③-|
①②口② |-④--|
③口口口 |⑤-⑥-|

口⑤口⑤
口口⑥口
口口口口
口④⑥④
28
③⑤口口 |①-②-|
③⑤⑦⑧ |③-④-|
②①①④ |⑤-⑥-|
②④⑥⑥ |⑦⑧--|
29
口口①① |①--②|
②③口口 |③-④-|
口口口④ |⑤-⑥-|
口口口口 |⑦-⑧-|

>口⑦口
口口口⑦
口⑥⑤口
口口口∧

口口⑧口
口口口⑧
口口口口
口口口口
30
⑥口口口 |①-②-|
①口⑦⑧ |③-④⑤|
②口口口 |--⑥-|
③口④⑤ |⑦⑧--|
31
口①口口 |①--②|
③⑤⑥⑤ |--③-|
①②口② |-④--|
③④⑥④ |⑤-⑥-|
32
②⑧口④ |①---|
⑤口⑦口 |②-③-|
①⑥③① |④-⑤⑥|
②口口④ |⑦-⑧-|
33
③口③口 |①-②-|
口口口口 |③-④-|
口口口① |⑤---|
②②④④ |⑥-⑦-|

∨⑥<⑤
⑥⑤⑥口
>⑥∧口
口口口口

口⑦口口
⑦口⑦口
口⑦口口
口口口口
34
③口口⑥ |①-②-|
⑦⑧口① |③-④⑤|
③口口① |--⑥-|
④⑤②② |⑦⑧--|
35
口口①口 |①--②|
⑤⑥⑤③ |--③-|
②口②① |-④--|
④⑥④③ |⑤-⑥-|
36
④③③⑥ |①-②-|
⑦⑧口② |③-④-|
④①①② |⑤-⑥-|
口口⑤口 |⑦⑧--|
37
③口①口 |①--②|
口口②① |--③-|
口口口③ |④⑤-⑥|
②①③② |⑦-⑧-|

口⑦⑦⑥
⑦∧∧⑦
∧⑤④∧
口口口口

口⑧⑧口
⑧口口⑧
口口口口
口口口口
38
⑦⑧口⑥ |①-②-|
口②①口 |③-④⑤|
口口③口 |--⑥-|
④⑤口口 |⑦⑧--|
39
口口①⑥ |①--②|
⑤口⑤③ |--③-|
②口②① |-④--|
④⑥④③ |⑤-⑥-|
40
口口口口 |①-②-|
⑤⑥⑦⑧ |③-④-|
④③②① |⑤-⑥-|
口口口口 |⑦-⑧-|
41
②①①口 |①---|
口口口口 |②---|
口口口口 |③--④|
②口口口 |--⑤-|

口⑤⑤③
口④④口
口口口口
口口口③
42
⑤><③ |①-②-|
⑥④⑥④ |③--④|
口∨∨口 |--⑤-|
口①①口 |-⑥--|

⑥口口④
口口口口
口口口口
口②②口
43
口口口口 |①--②|
④②④② |--③-|
③><① |-④--|
口口口口 |⑤-⑥-|

口口口口
口口口口
④∨口②
口⑤口口

口口口口
口口口口
口口口口
口⑥口口
44
①①口口 |①-②-|
∧∧口口 |③--④|
⑥④⑥④ |--⑤-|
⑤><③ |-⑥--|

②②口口
口口口口
口口口口
⑥口口④
45
口口口口 |①--②|
③><① |--③-|
口②口② |-④--|
口口口口 |⑤-⑥-|

口⑤⑤口
④口口②
口口口口
④⑥⑥④
46
⑥><③ |①-②-|
口①∨口 |③-④⑤|
口∧①口 |--⑥-|
口口口口 |⑦⑧--|

⑧口口⑤
口②④口
⑤④②口
口⑦⑦⑧
47
口口②口 |①-②③|
③②⑥∨ |--④-|
④><① |⑤⑥--|
口⑤⑤⑦ |⑦-⑧-|

口口口口
口口口口
⑥口口③
口口口⑧
48
口口①① |①-②-|
口口口口 |③-④⑤|
口口∧∧ |--⑥-|
③><⑥ |⑦⑧--|

口口②②
⑤④⑦⑧
口⑦④口
⑤口口⑧
49
>①①< |①-②③|
④口口口 |④-⑤-|
②口③② |⑥-⑦-|
口口口口 |⑧-⑨⑩|

口③③⑤
口⑥⑩⑨
口口口口
⑧口⑦口
50
口①口② |①-②-|
③口口口 |③-④-|
口①④口 |⑤-⑥-|
口口口口 |⑦-⑧-|

⑦口口⑧
口口口口
∧口口⑥
口⑤口口

⑧口口口
口口口口
口口口口
口口口口
51
口口④口 |①-②-|
口①口口 |③-④-|
口③②口 |⑤-⑥-|
⑤⑧⑦⑥ |⑦-⑧-|

52
①>口① |①-②-|
③口④口 |③-④-|
口口②口 |⑤-⑥-|
口口口口 |⑦-⑧-|

口口⑥④
口口口口
⑤口口⑧
⑦口⑦口
53
①口口口 |①-②-|
③口④口 |③-④-|
口口②口 |⑤-⑥-|
口>口① |⑦-⑧-|

口口⑥口
口口口⑧
⑤口口口
⑥口⑦④
54
①口口② |①-②-|
③口口口 |③-④-|
口口④口 |⑤-⑥-|
口口口口 |⑦-⑧-|

⑦口口⑧
口口口口
∧口口⑥
口⑤口口

⑧口口口
口口口口
口口口口
口口口口
55
口口④口 |①-②-|
口①口口 |③-④-|
口③②口 |⑤-⑥-|
⑤⑧⑦⑥ |⑦-⑧-|
56
①>口① |①-②-|
③口④口 |③-④-|
口口②口 |⑤-⑥-|
口口口口 |⑦-⑧-|

口口⑥④
口口口口
⑤口口⑧
⑦口⑦口
57
①②口口 |①-②-|
③④口④ |③-④-|
口口②口 |⑤-⑥-|
口>口① |⑦-⑧-|

口口⑥口
口口口口
⑤⑥口⑧
⑦⑧⑦④
58
①①④② |①-②-|
③口口口 |③-④-|
口口④口 |⑤-⑥-|
口口口口 |⑦-⑧-|

⑦口口⑧
口口⑥口
∧⑤口口
口⑦口口

⑧口口口
口口口口
口口口口
口口口口
59
口口④口 |①-②-|
口①口① |③-④-|
口③②④ |⑤-⑥-|
口口口口 |⑦-⑧-|

口口口口
口⑦口口
口口口口
⑤⑧⑦⑥
60
①>口① |①-②-|
③口④④ |③-④-|
口口②口 |⑤-⑥-|
口口口口 |⑦-⑧-|

口口⑥④
口口口口
⑤口口⑧
⑦口⑦口
61
①口口口 |①-②-|
③口④④ |③-④-|
口口②口 |⑤-⑥-|
口>口① |⑦-⑧-|

口口⑥口
口口口口
⑤口口⑧
⑥⑦⑦④
62
①口④② |①-②-|
③口口口 |③-④-|
口①④口 |⑤-⑥-|
口口口口 |⑦-⑧-|

⑦口口⑧
口⑤口口
∧口口⑥
口⑦口口

⑧口口口
口口口口
口口口口
口口口口
63
口①④口 |①-②-|
①⑦④口 |③-④-|
口③②口 |⑤-⑥-|
⑤⑧⑦⑥ |⑦-⑧-|
64
①>口① |①-②-|
③口④④ |③-④-|
口口②口 |⑤-⑥-|
口口口口 |⑦-⑧-|

口口⑥④
口⑥口口
⑤口口⑧
⑦口⑦口
65
①①口口 |①-②-|
④口③③ |③-④-|
④②口口 |⑤-⑥-|
口②口口 |⑦-⑧-|

口口口⑥
口口口口
口⑧⑦⑥
⑤口⑤口
66
②①①口 |①---|
口③口口 |②-③-|
口口口口 |④-⑤⑥|
②口③口 |⑦-⑧-|

口⑧口④
⑤口⑦⑦
口⑥口口
口口口④
67
③⑨④⑤ |①-②-|
⑥口⑧⑧ |③-④-|
①⑦④① |⑤-⑥⑦|
②③②⑤ |⑧-⑨-|
68
①⑧口④ |①---|
⑤③⑦⑦ |②-③-|
②⑥口② |④-⑤⑥|
口①③④ |⑦-⑧-|

69
③⑨④⑤ |①-②-|
⑥口⑧⑧ |③-④-|
①⑦④① |⑤-⑥⑦|
②③②⑤ |⑧-⑨-|
70
②口②口 |①-②-|
④口口口 |③-④-|
①口口① |⑤-⑥⑦|
③口④③ |⑧-⑨-|

口口⑨口
口⑧⑤⑥
口⑤⑦口
口⑥口口
71
③①口③ |①-②-|
口口口口 |③-④-|
②口口② |⑤-⑥⑦|
④口口④ |⑧-⑨-|

口⑨口口
⑥⑤⑧口
口⑦⑤口
口口⑥口
72
口口④口 |①②③④|
口⑤口② |⑤⑥⑦⑧|
③口⑥口 |⑨⑩⑪⑫|
⑦①口⑧ |⑬⑭⑮⑯|

⑬⑮口口
⑨口⑩⑭
⑯⑪口口
口口⑫口
73
口口①① |①-②-|
③③⑥口 |--③-|
口⑤②② |④---|
④④口口 |⑤-⑥-|
74
②口口① |①---|
口③口口 |②③-④|
口口口∨ |⑤-⑥⑦|
口口口② |-⑧⑨-|

口⑦口口
④口口④
⑥⑤∨∧
口口⑥口

口口⑨⑧
口口⑧口
口口∧口
口口口口

口口口口
口口⑨⑤
口口口口
口口⑦③
75
口口口口 |①②-③|
口口口口 |④-⑤⑥|
口∨②① |-⑦⑧-|
口①口口 |⑨⑩⑪-|

③口口口
口③口口
口∧口口
口口口口

口口口口
口口口⑤
∨④口口
⑤口⑥口

口口⑨⑦
⑦口⑧口
∧>口⑨
口口口口

口口口口
⑧④口口
口口口口
⑥②口口

口口口口
口口口口
口口⑪⑪
口⑩口口
76
②②口口 |①---|
⑥口③⑦ |②-③-|
①④口口 |④-⑤⑥|
⑧口⑤⑨ |⑦⑧⑨-|
77
口口③③ |①-②-|
⑧④口⑨ |③-④-|
②口⑤① |⑤-⑥-|
口⑥⑦口 |⑦⑧⑨-|
78
口①口② |①---|
口口口∧ |②③-④|
口③口口 |⑤-⑥⑦|
②口口① |-⑧⑨-|

口口⑥口
⑥⑤∧∨
④口口④
口⑦口口

口口口口
口口∨口
口口⑧口
口口⑨⑧

口口⑦③
口口口口
口口⑨⑤
口口口口
79
口①口口 |①②-③|
口∧②① |④-⑤⑥| 
口口口口 |-⑦⑧-|
口口口口 |⑨⑩⑪-|

口口口口
口∨口口
口③口口
③口口口

⑤口⑥口
∧④口口
口口口⑤
口口口口

口口口口
∨>口⑨
⑦口⑧口
口口⑨⑦

⑥②口口
口口口口
⑧④口口
口口口口

口⑩口口
口口⑪⑪
口口口口
口口口口
80
⑧口⑤⑨ |①---|
①④口口 |②-③-|
⑥口③⑦ |④-⑤⑥|
②②口口 |⑦⑧⑨-|
81
口⑥口⑦ |①-②-|
②⑦⑤① |③-④-|
⑨④⑧⑨ |⑤-⑥-|
口口③③ |⑦⑧⑨-|
82
②口①口 |①---|
③口口口 |②③-④|
口口口∨ |⑤-⑥⑦|
口①口② |-⑧⑨-|

口⑦口口
口口口④
⑥⑤∨∧
④口⑥口

口口⑨⑧
口口⑧口
口口∧口
口口口口

口口口口
口口⑨⑤
口口口口
口口⑦③
83
口口口口 |①②③④|
口口口口 |⑤-⑥⑦|
口∨②① |-⑧⑨-|
口①口③ |⑩⑪⑫-|

④口口口
口④口口
口∧口口
口口口口

口口口口
口口口⑥
∨⑤口口
⑥口⑦口

口口⑩⑧
⑧口⑨口
∧>口⑩
口口口口

口口口口
⑨⑤口口
口口口口
⑦②口口

口口口口
口口口口
口口⑫⑫
口⑪口口
84
③③口口 |①-②-|
口口④② |③-④-|
①口口口 |⑤-⑥⑦|
口口口口 |⑧⑨⑩-|

口口口口
⑨口口⑩
口⑤口口
⑦口⑥⑧
85
口⑧③③ |①-②-|
⑨④口⑦ |③-④-|
②口⑤① |⑤-⑥⑦|
口⑥⑨⑧ |⑧-⑨-|
86
①口口② |①---|
口口①∧ |②③-④|
口③口口 |⑤-⑥⑦|
②口口口 |-⑧⑨-|

口口⑥口
⑥⑤∧∨
④口口④
口⑦口口

口口口口
口口∨口
口口⑧口
口口⑨⑧

口口⑦③
口口口口
口口⑨⑤
口口口口
87
口①口③ |①②③④|
口∧②① |⑤-⑥⑦| 
口口口口 |-⑧⑨-|
口口口口 |⑩⑪⑫-|

口口口口
口∨口口
口④口口
④口口口

⑥口⑦口
∧⑤口口
口口口⑥
口口口口

口口口口
∨>口⑩
⑧口⑨口
口口⑩⑧

⑦②口口
口口口口
⑨⑤口口
口口口口

口⑪口⑫
口口口⑫
口口口口
口口口口
88
⑤⑥⑤口 |①-②-|
①口③口 |③-④-|
⑦②⑦④ |⑤--⑥|
口⑥口口 |--⑦-|
89
⑨⑧⑯① |①②③④|
⑩⑮⑦② |⑤⑥⑦⑧|
⑪⑥⑭③ |⑨⑩⑪⑫|
⑫⑬⑤④ |⑬⑭⑮⑯|
90
口口口口 |①---|
口口口口 |----|
口口口① |----|
口口①① |----|
最終更新:2022年04月07日 16:18