アットウィキロゴ
LIKE A VAMPIRE
koyomi,星野奏子 by BEMANI Sound Team "TAKA"

BASIC

Level: 3
BPM: 276
Notes: 139

1
口口口口 |----|
口口口口 |----|
口口口口 |----|
口口口口 |----|
2
口口口口 |----|
口口口口 |----|
口口口口 |----|
口口口口 |----|
3
口口口口 |----|
口口口口 |----|
口口口口 |----|
口口口口 |----|
4
口口口口 |----|
口口口口 |----|
口口口口 |----|
口口口口 |----|
5
口口口口 |----|
口口口口 |----|
口口口口 |----|
口口口口 |----|
6
口口口口 |----|
口口口口 |----|
口口口口 |----|
口口口口 |----|
7
口口口口 |----|
口口口口 |----|
口口口口 |----|
口口口口 |----|
8
口口口口 |----|
口口口口 |----|
口口口口 |----|
口口口口 |----|
9
口口口口 |----|
口口口口 |----|
口口口口 |----|
口口口口 |----|
10
口口口口 |①---|
口口口口 |----|
口口口① |----|
口口口口 |----|
11
口口口口 |①---|
口口口口 |----|
口口①口 |----|
口口口口 |----|
12
口口口口 |①---|
口口口口 |----|
口①口口 |----|
口口口口 |----|
13
口口口口 |①---|
口口口口 |----|
①口口口 |----|
口口口口 |----|
14
口口口口 |①---|
①口口口 |----|
口口口口 |----|
口口口口 |----|
15
口口口口 |①---|
口①口口 |----|
口口口口 |----|
口口口口 |----|
16
口口口口 |①---|
口口①口 |----|
口口口口 |----|
口口口口 |----|
17
口口口口 |①---|
口口口① |----|
口口口口 |----|
口口口口 |----|
18
口口口口 |①---|
①口口口 |----|
口口口口 |----|
口口口口 |----|
19
①口口口 |①---|
口口口口 |----|
口口口口 |----|
口口口口 |----|
20
口口口口 |①---|
口①口口 |----|
口口口口 |----|
口口口口 |----|
21
口①口口 |①---|
口口口口 |----|
口口口口 |----|
口口口口 |----|
22
口口口口 |①---|
口口口① |----|
口口口口 |----|
口口口口 |----|
23
口口口① |①---|
口口口口 |----|
口口口口 |----|
口口口口 |----|
24
口口口口 |①---|
口口①口 |----|
口口口口 |----|
口口口口 |----|
25
口口①口 |①---|
口口口口 |----|
口口口口 |----|
口口口口 |----|
26
口口口口 |①---|
口口口口 |----|
①口口口 |----|
口口口口 |----|
27
口口口口 |①---|
口口口口 |----|
口①口口 |----|
口口口口 |----|
28
口口口口 |①---|
口口口口 |----|
口口①口 |----|
口口口口 |----|
29
口口口口 |①---|
口口口口 |----|
口口口① |----|
口口口口 |----|
30
口口口口 |①---|
口口口① |----|
口口口口 |----|
口口口口 |----|
31
口口口口 |①---|
口口①口 |----|
口口口口 |----|
口口口口 |----|
32
口口口口 |①---|
口①口口 |----|
口口口口 |----|
口口口口 |----|
33
口口口口 |①---|
①口口口 |----|
口口口口 |----|
口口口口 |----|
34
口口口口 |①---|
口口口① |----|
口口口口 |----|
口口口口 |----|
35
口口口① |①---|
口口口口 |----|
口口口口 |----|
口口口口 |----|
36
口口口口 |①---|
口口①口 |----|
口口口口 |----|
口口口口 |----|
37
口口①口 |①---|
口口口口 |----|
口口口口 |----|
口口口口 |----|
38
口口口口 |①---|
①口口口 |----|
口口口口 |----|
口口口口 |----|
39
①口口口 |①---|
口口口口 |----|
口口口口 |----|
口口口口 |----|
40
口口口口 |①---|
口①口口 |----|
口口口口 |----|
口口口口 |----|
41
口①口口 |①---|
口口口口 |----|
口口口口 |----|
口口口口 |----|
42
口口口口 |①---|
口口口口 |----|
①口口口 |----|
口口口口 |----|
43
口口口口 |①---|
口口口口 |----|
口①口口 |----|
口口口口 |----|
44
口口口口 |①---|
口口口口 |----|
口口①口 |----|
口口口口 |----|
45
口口口口 |①---|
口口口口 |----|
口口口① |----|
口口口口 |----|
46
口口口口 |①---|
口口口① |----|
口口口口 |----|
口口口口 |----|
47
口口口口 |①---|
口口①口 |----|
口口口口 |----|
口口口口 |----|
48
口口口口 |①---|
口①口口 |----|
口口口口 |----|
口口口口 |----|
49
口口口口 |①---|
①口口口 |----|
口口口口 |----|
口口口口 |----|
50
①口口口 |①---|
口口口口 |----|
口口口口 |----|
口口口口 |----|
51
口口口口 |①---|
口①口口 |----|
口口口口 |----|
口口口口 |----|
52
口口口口 |①---|
口口口口 |----|
口口①口 |----|
口口口口 |----|
53
口口口口 |①---|
口口口口 |----|
口口口口 |----|
口口口① |----|
54
口口口口 |①---|
口口口口 |----|
①口口口 |----|
口口口口 |----|
55
口口口口 |①---|
口口口口 |----|
口口口① |----|
口口口口 |----|
56
口口口口 |①---|
口口口口 |----|
口①口口 |----|
口口口口 |----|
57
口口口口 |①---|
口口口口 |----|
口口①口 |----|
口口口口 |----|
58
口口口① |①---|
口口口口 |----|
口口口口 |----|
口口口口 |----|
59
口口口口 |①---|
口口①口 |----|
口口口口 |----|
口口口口 |----|
60
口口口口 |①---|
口口口口 |----|
口①口口 |----|
口口口口 |----|
61
口口口口 |①---|
口口口口 |----|
口口口口 |----|
①口口口 |----|
62
口口口口 |①---|
口口口口 |----|
口口口① |----|
口口口口 |----|
63
口口口口 |①---|
口口口口 |----|
①口口口 |----|
口口口口 |----|
64
口口口口 |①---|
口口口口 |----|
口口①口 |----|
口口口口 |----|
65
口口口口 |①---|
口口口口 |----|
口①口口 |----|
口口口口 |----|
66
口口口口 |①---|
口口口② |----|
口口口① |②---|
口口口口 |----|
67
口口口口 |①---|
口口①口 |----|
口口②口 |②---|
口口口口 |----|
68
口口口口 |①---|
②口口口 |----|
①口口口 |②---|
口口口口 |----|
69
口口口口 |①---|
口①口口 |----|
口②口口 |②---|
口口口口 |----|
70
口口①口 |①---|
口口口口 |----|
口口口口 |----|
口口口口 |----|
71
口口口口 |①---|
口口①口 |----|
口口口口 |----|
口口口口 |----|
72
口口口口 |①---|
口口口口 |----|
口①口口 |----|
口口口口 |----|
73
口口口口 |①---|
口口口口 |----|
口口口口 |----|
口①口口 |----|
74
口口口口 |①---|
②口口口 |----|
①口口口 |②---|
口口口口 |----|
75
口口口口 |①---|
口①口口 |----|
口②口口 |②---|
口口口口 |----|
76
口口口口 |①---|
口口口② |----|
口口口① |②---|
口口口口 |----|
77
口口口口 |①---|
口口①口 |----|
口口②口 |②---|
口口口口 |----|
78
口①口口 |①---|
口口口口 |----|
口口口口 |----|
口口口口 |----|
79
口口口口 |①---|
口①口口 |----|
口口口口 |----|
口口口口 |----|
80
口口口口 |①---|
口口口口 |----|
口口口口 |----|
口口①口 |----|
81
口口口口 |①---|
口口口口 |----|
口口①口 |----|
口口口口 |----|
82
口口口口 |①---|
①口口口 |----|
口②口口 |②---|
口口口口 |----|
83
口口口口 |①---|
口口口口 |----|
口口口口 |----|
口口①口 |----|
84
口口口口 |①---|
口口口① |----|
口口②口 |②---|
口口口口 |----|
85
口口口口 |①---|
口口口口 |----|
口口口口 |----|
口①口口 |----|
86
口口口口 |①---|
口口②口 |----|
口口口① |②---|
口口口口 |----|
87
口①口口 |①---|
口口口口 |----|
口口口口 |----|
口口口口 |----|
88
口口口口 |①---|
口②口口 |----|
①口口口 |②---|
口口口口 |----|
89
口口①口 |①---|
口口口口 |----|
口口口口 |----|
口口口口 |----|
90
①口口口 |①---|
口口口口 |----|
口口口口 |----|
口口口口 |----|
91
口①口口 |①---|
口口口口 |----|
口口口口 |----|
口口口口 |----|
92
口口①口 |①---|
口口口口 |----|
口口口口 |----|
口口口口 |----|
93
口口口① |①---|
口口口口 |----|
口口口口 |----|
口口口口 |----|
94
口口口口 |①---|
口口口口 |----|
口口口① |----|
口口口口 |----|
95
口口口口 |①---|
口口口口 |----|
口口①口 |----|
口口口口 |----|
96
口口口口 |①---|
口口口口 |----|
口①口口 |----|
口口口口 |----|
97
口口口口 |①---|
口口口口 |----|
①口口口 |----|
口口口口 |----|
98
口口口口 |①---|
口口口① |----|
口口②口 |②---|
口口口口 |----|
99
口口口口 |①---|
口口口口 |----|
口口口口 |----|
口①口口 |----|
100
口口口口 |①---|
①口口口 |----|
口②口口 |②---|
口口口口 |----|
101
口口口口 |①---|
口口口口 |----|
口口口口 |----|
口口①口 |----|
102
口口口口 |①---|
口②口口 |----|
①口口口 |②---|
口口口口 |----|
103
口口①口 |①---|
口口口口 |----|
口口口口 |----|
口口口口 |----|
104
口口口口 |①---|
口口②口 |----|
口口口① |②---|
口口口口 |----|
105
口①口口 |①---|
口口口口 |----|
口口口口 |----|
口口口口 |----|
106
口口口① |①---|
口口口口 |----|
口口口口 |----|
口口口口 |----|
107
口口①口 |①---|
口口口口 |----|
口口口口 |----|
口口口口 |----|
108
口①口口 |①---|
口口口口 |----|
口口口口 |----|
口口口口 |----|
109
①口口口 |①---|
口口口口 |----|
口口口口 |----|
口口口口 |----|
110
口口口口 |①---|
口口口口 |----|
①口口口 |----|
口口口口 |----|
111
口口口口 |①---|
口口口口 |----|
口①口口 |----|
口口口口 |----|
112
口口口口 |①---|
口口口口 |----|
口口①口 |----|
口口口口 |----|
113
口口口口 |①---|
口口口口 |----|
口口口① |----|
口口口口 |----|
114
口口口口 |①---|
口口口口 |----|
口①①口 |----|
口口口口 |----|
115
口口口口 |----|
口口口口 |----|
口口口口 |----|
口口口口 |----|
116
口口口口 |----|
口口口口 |----|
口口口口 |----|
口口口口 |----|
117
口口口口 |----|
口口口口 |----|
口口口口 |----|
口口口口 |----|
118
口口口口 |①---|
口口口口 |----|
①口口口 |----|
口口口口 |----|
119
口口口口 |①---|
口口口口 |----|
口②口① |----|
口口口口 |-------②|
120
口口口口 |----|
口口口口 |----|
口口口口 |----|
口口口口 |----|
121
口口口口 |①---|
口口口口 |----|
口口①口 |----|
口口口口 |----|
122
口口口口 |①---|
口口①口 |----|
口口口口 |----|
口口口口 |----|
123
口口口口 |①---|
口口口口 |----|
口①口口 |----|
口口口口 |----|
124
口口口口 |-①------|
①口口口 |----|
口口口口 |----|
口口口口 |----|
125
口①口口 |①---|
口口口口 |----|
口口口口 |----|
口口口口 |----|
126
口口口口 |①---|
口口口① |----|
口口口口 |----|
口口口口 |----|
127
口口口口 |①---|
①口口口 |----|
口口口口 |----|
口口口口 |----|
128
口口口口 |①---|
口口①口 |----|
口口口口 |----|
口口口口 |----|
129
口口口口 |①---|
口①口口 |----|
口口口口 |----|
口口口口 |----|
130
口口口口 |①---|
口口口口 |----|
①口口口 |----|
口口口口 |----|
131
口口口口 |①---|
口口口口 |----|
口口口口 |----|
口①口口 |----|
132
口口口口 |①---|
口口口口 |----|
口口①口 |----|
口口口口 |----|
133
口口口口 |①---|
口①②口 |----|
口口口口 |②---|
口口口口 |----|

accuracy: 100%
最終更新:2022年08月11日 16:24