アットウィキロゴ
LIKE A VAMPIRE
koyomi,星野奏子 by BEMANI Sound Team "TAKA"

ADVANCED

Level: 7
BPM: 276
Notes: 508

1
口口口口 |----|
口口口口 |----|
口口口口 |----|
口口口口 |----|
2
口口口口 |----|
口口口口 |----|
口口口口 |----|
口口口口 |----|
3
口口口口 |----|
口口口口 |----|
口口口口 |----|
口口口口 |----|
4
口口口口 |----|
口口口口 |----|
口口口口 |----|
口口口口 |----|
5
口口口口 |----|
口口口口 |----|
口口口口 |----|
口口口口 |----|
6
口口口口 |----|
口口口口 |----|
口口口口 |----|
口口口口 |----|
7
口口口口 |----|
口口口口 |----|
口口口口 |----|
口口口口 |----|
8
口口口口 |----|
口口口口 |----|
口口口口 |----|
口口口口 |----|
9
④口口④ |①---|
口口口口 |②---|
口③②① |③---|
口口口口 |④---|
10
口口口口 |①---|
②口口口 |----|
口口口口 |②---|
口①口口 |----|
11
口口①口 |①---|
口口口② |②---|
口口③口 |③---|
口口口口 |----|
12
口口口口 |①---|
①口③口 |②---|
口②口口 |③---|
口口口口 |----|
13
口③口① |①---|
口④口② |②---|
口口口口 |③---|
口口口口 |④---|
14
口口口口 |①---|
口口口② |----|
口口口口 |②---|
口口①口 |----|
15
口①口口 |①---|
②口口口 |②---|
口③口口 |③---|
口口口口 |----|
16
口口口口 |①---|
口③口① |②---|
④口②口 |③---|
口口口口 |④---|
17
①口①口 |①---|
口口②口 |②---|
口③口③ |③---|
口④口口 |④---|
18
口口口③ |----|
②口②口 |①---|
①口①口 |②---|
口口口口 |--③-|
19
口口口口 |--①-|
口口口口 |----|
口①口口 |②---|
口③②口 |③---|
20
口口口口 |----|
口①口① |①---|
口②口② |②---|
③口口口 |--③-|
21
口②③口 |--①-|
口口①口 |----|
口口口口 |②---|
口口口口 |③---|
22
口口口③ |----|
②口②口 |①---|
①口①口 |②---|
口口口口 |--③-|
23
口口口口 |--①-|
口口口口 |----|
口①口口 |②---|
口③②口 |③---|
24
口口口口 |----|
口①口① |①---|
口②口② |②---|
口口口口 |----|
25
口口口③ |①---|
①口①口 |②---|
②口②口 |③---|
口口口口 |----|
26
①口口口 |①---|
口口②口 |----|
口口口口 |②---|
口口口口 |----|
27
口①口口 |①---|
口口口口 |----|
口②口口 |②---|
口口口口 |----|
28
口口口口 |①---|
口口②口 |----|
口口口口 |②---|
口口①口 |----|
29
口②口口 |①---|
口口口③ |----|
口①口口 |②---|
口口口口 |③---|
30
口口口口 |①---|
①口口口 |----|
口②口口 |②---|
口口口口 |----|
31
口口口口 |①---|
口口①口 |----|
口口口口 |②---|
口口②口 |----|
32
口口口口 |①---|
③口口③ |----|
口①②口 |②---|
口口口口 |③---|
33
口①③口 |①---|
口②④口 |②---|
口口口口 |③---|
口口口口 |④---|
34
③口口口 |----|
口②口② |①---|
口①口① |②---|
口口口口 |--③-|
35
口口口口 |--①-|
口口口口 |----|
口口①口 |②---|
口②③口 |③---|
36
口口口口 |----|
①口①口 |①---|
②口②口 |②---|
口口口③ |--③-|
37
口③②口 |--①-|
口①口口 |----|
口口口口 |②---|
口口口口 |③---|
38
③口口口 |----|
口②口② |①---|
口①口① |②---|
口口口口 |--③-|
39
口口口口 |--①-|
口口口口 |----|
口口①口 |②---|
口②③口 |③---|
40
口口口口 |----|
①口①口 |①---|
②口②口 |②---|
口口口口 |----|
41
③口口口 |①---|
口①口① |②---|
口②口② |③---|
口口口口 |----|
42
口口口① |①---|
口②口口 |----|
口口口口 |②---|
口口口口 |----|
43
③口①口 |①---|
口口口口 |----|
口口②口 |②---|
口口口口 |③---|
44
口口口口 |①---|
口②口① |----|
口口口口 |②---|
口口口口 |----|
45
口口②口 |①---|
③口口口 |----|
口口①口 |②---|
口口口口 |③---|
46
口口口① |①---|
口口口口 |----|
口口②口 |②---|
口口口口 |----|
47
口口口口 |①---|
口①口口 |----|
口口口口 |②---|
口②口口 |----|
48
口口口口 |①---|
③口口③ |----|
口②①口 |②---|
口口口口 |③---|
49
口①口口 |①---|
口②口口 |②---|
口口④口 |③---|
口口③口 |④---|
50
③口口口 |----|
口口②口 |①---|
①口口口 |②---|
口口口口 |③---|
51
口口口口 |①---|
口①口口 |--②-|
口口口② |----|
③口口口 |③---|
52
口口口口 |①---|
口口口① |---②----|
口口②口 |----|
口③口口 |③---|
53
口口口口 |----|
①口②口 |①---|
口③口③ |②---|
①口②口 |③---|
54
口①口① |①---|
口②口口 |----|
③口③口 |②---|
口口口口 |③---|
55
①口①③ |①---|
口口②口 |----|
口口口口 |②---|
口口口口 |③---|
56
口③口口 |①---|
口④口① |②---|
口口口② |③---|
口口口口 |④---|
57
口口口口 |①---|
口口口④ |②---|
③①口口 |③---|
口口口② |④---|
58
口口口③ |----|
口②口口 |①---|
口口口口 |②---|
口①①口 |③---|
59
口口口口 |①---|
口口①口 |--②-|
②口口口 |----|
口口口③ |③---|
60
口口口口 |①---|
①口口口 |---②----|
口②口口 |----|
口口③口 |③---|
61
口口口口 |----|
口②口① |①---|
③口③口 |②---|
口②口① |③---|
62
①口①口 |①---|
口口②口 |----|
口③口③ |②---|
口口口口 |③---|
63
③①口① |①---|
口②口口 |----|
口口口口 |②---|
口口口口 |③---|
64
口口③口 |①---|
①口④口 |②---|
②口口口 |③---|
口口口口 |④---|
65
口口口口 |①---|
④口口④ |②---|
口口①口 |③---|
③②口③ |④---|
66
④口口口 |①---|
口②③口 |②---|
口③口① |③---|
口口①口 |④---|
67
口口①口 |①---|
口③口口 |②---|
口口口② |③---|
口口④口 |④---|
68
口①口口 |①---|
①口③口 |②---|
口③②口 |③---|
口口口④ |④---|
69
口④口口 |①---|
②口口口 |②---|
口口③口 |③---|
口①口口 |④---|
70
②口口② |①---|
口口口口 |----|
①口口① |②---|
口口口口 |----|
71
口③②口 |①---|
口口口口 |----|
口①口口 |②---|
口口口口 |③---|
72
①口口③ |①---|
口②②口 |--②-|
③口口① |----|
口口口口 |③---|
73
口①口口 |①---|
口口口口 |----|
口口口② |②---|
口口口口 |----|
74
口口口④ |①---|
口③②口 |②---|
①口③口 |③---|
口①口口 |④---|
75
口①口口 |①---|
口口③口 |②---|
②口口口 |③---|
口④口口 |④---|
76
口口①口 |①---|
口③口① |②---|
口②③口 |③---|
④口口口 |④---|
77
口口④口 |①---|
口口口② |②---|
口③口口 |③---|
口口①口 |④---|
78
口口口口 |①---|
②口口② |----|
口口口口 |②---|
①口口① |----|
79
口口口口 |①---|
口②③口 |----|
口口口口 |②---|
口口①口 |③---|
80
口口口口 |①---|
③口口① |--②-|
口②②口 |----|
①口口③ |③---|
81
口口口③ |①---|
口④①口 |②---|
②口口口 |③---|
口口口口 |④---|
82
口④③口 |①---|
⑤口②① |②---|
口③口口 |③---|
口口①口 |④-⑤-|
83
②口口① |--①-|
口④③口 |②---|
口口口口 |③---|
口口口口 |④---|
84
口口口口 |①---|
③口口③ |--②-|
②口口② |----|
①口口① |③---|
85
口口口口 |----|
口口③口 |①---|
口②口口 |②---|
口口①口 |③---|
86
口③④口 |①---|
①②口⑤ |②---|
口口③口 |③---|
口①口口 |④-⑤-|
87
①口口② |--①-|
口③④口 |②---|
口口口口 |③---|
口口口口 |④---|
88
③④④③ |①---|
口口口口 |②---|
①②②① |③---|
口口口口 |④---|
89
口口口口 |①---|
①④口④ |②---|
口口口② |③---|
③口口口 |④---|
90
口口口口 |①---|
②口口口 |-----②--|
①口①口 |----|
口口③口 |③---|
91
口②口口 |----|
③①③口 |①---|
口口口口 |②---|
口口口口 |③---|
92
口口口口 |①---|
口口口② |--②-|
口①口① |----|
口③口口 |③---|
93
口口②口 |----|
口③①口 |①---|
口口口口 |②---|
口口口口 |③---|
94
口口口口 |①---|
口口③① |--②-|
口口②口 |----|
口①口口 |③---|
95
口口口口 |①---|
①口口口 |--②-|
口②口③ |----|
口口①口 |③---|
96
③口口口 |①---|
口①口② |--②-|
②口①口 |----|
口口口③ |③---|
97
口口口口 |----|
口口①口 |①---|
口②口口 |②---|
③口口口 |③---|
98
口③④口 |①---|
①②口⑤ |②---|
口口③口 |③---|
口①口口 |④-⑤-|
99
①口口② |--①-|
口③④口 |②---|
口口口口 |③---|
口口口口 |④---|
100
口口口口 |①---|
③口口③ |--②-|
②口口② |----|
①口口① |③---|
101
口口口口 |----|
口③口口 |①---|
口口②口 |②---|
口①口口 |③---|
102
口④③口 |①---|
⑤口②① |②---|
口③口口 |③---|
口口①口 |④-⑤-|
103
②口口① |--①-|
口④③口 |②---|
口口口口 |③---|
口口口口 |④---|
104
③④④③ |①---|
口口口口 |②---|
①②②① |③---|
口口口口 |④---|
105
口口口口 |①---|
④口④① |②---|
②口口口 |③---|
口口口③ |④---|
106
口口口口 |①---|
口口口② |-----②--|
口①口① |----|
口③口口 |③---|
107
口口②口 |----|
口③①③ |①---|
口口口口 |②---|
口口口口 |③---|
108
口口口口 |①---|
②口口口 |--②-|
①口①口 |----|
口口③口 |③---|
109
口②口口 |----|
口①③口 |①---|
口口口口 |②---|
口口口口 |③---|
110
口口口口 |①---|
①③口口 |--②-|
口②口口 |----|
口口①口 |③---|
111
口口口口 |①---|
口口口① |--②-|
③口②口 |----|
口①口口 |③---|
112
口口口③ |①---|
②口①口 |--②-|
口①口② |----|
③口口口 |③---|
113
口口口口 |----|
口口口口 |----|
口口口口 |----|
口口口口 |----|
114
口口口口 |①---|
口①①口 |----|
口①①口 |----|
口口口口 |----|
115
口口口口 |----|
口口口口 |----|
口口口口 |----|
口口口口 |----|
116
口口口口 |----|
口口口口 |----|
口口口口 |----|
口口口口 |----|
117
④口口④ |①---|
口口口口 |②---|
①②③口 |③---|
口口口口 |④---|
118
口③口口 |①---|
口口①口 |②---|
口④口口 |③---|
口口②口 |④---|
119
口口口口 |①---|
口②口① |②---|
③口④口 |③---|
口口口口 |-④------|
120
口口口口 |①---|
①口②口 |②---|
口④口③ |③---|
口口口口 |④---|
121
口口①口 |①---|
口③口口 |②---|
口口②口 |③---|
口④口口 |④---|
122
口口口口 |①---|
口口口口 |----|
③口②② |②---|
口口①口 |③---|
123
④口③③ |①---|
①①口② |②---|
口口口口 |③---|
口口口口 |④---|
124
口口口口 |①---|
口②口④ |②---|
①口③口 |③---|
口口口口 |④---|
125
口口口口 |①---|
口口口口 |②---|
③①口③ |③---|
口口②口 |----|
126
口口口口 |①---|
口口口② |②---|
口口口④ |③---|
口①③口 |④---|
127
口④②口 |①---|
③口口口 |②---|
①口口口 |③---|
口口口口 |④---|
128
口口口口 |①---|
口④②口 |②---|
口③①口 |③---|
口口口口 |④---|
129
口口口口 |①---|
④口口② |②---|
③口口① |③---|
口口口口 |④---|
130
口口口口 |①---|
口②②口 |----|
口口口口 |②---|
口①①口 |----|
131
口②②口 |①---|
口口口口 |----|
口①①口 |②---|
口口口口 |----|
132
口口口① |①---|
②口口口 |②---|
口口口③ |③---|
④口口口 |④---|
133
口①②口 |①---|
口①②口 |----|
口②①口 |②---|
口②①口 |----|

accuracy: 100%
最終更新:2022年08月11日 16:47