アットウィキロゴ
LIKE A VAMPIRE
koyomi,星野奏子 by BEMANI Sound Team "TAKA"

EXTREME

Level: 9.2
BPM: 276
Notes: 732

1
口口口口 |----|
口口口口 |----|
口口口口 |----|
口口口口 |----|
2
口口口口 |----|
口口口口 |----|
口口口口 |----|
口口口口 |----|
3
口口口口 |----|
口口口口 |----|
口口口口 |----|
口口口口 |----|
4
口口口口 |----|
口口口口 |----|
口口口口 |----|
口口口口 |----|
5
口口口口 |----|
口口口口 |----|
口口口口 |----|
口口口口 |----|
6
口口口口 |①---|
口口口口 |----|
①①①① |----|
口口口口 |----|
7
口口口口 |----|
口口口口 |----|
口口口口 |----|
口口口口 |----|
8
口口口口 |----|
口口口口 |----|
口口口口 |----|
口口口口 |----|
9
口口口口 |①---|
③口口口 |②---|
口口口② |③---|
①④④口 |④---|
10
①口口口 |①---|
口②口③ |②---|
①⑤④口 |③---|
口口口③ |④-⑤-|
11
口口①口 |----|
②④③口 |①---|
口口口口 |②---|
口口口口 |③-④-|
12
口口口口 |----|
口口口口 |①---|
口④③① |②---|
口②口口 |③-④-|
13
口口口口 |----|
①③口① |①---|
口口口口 |②---|
口口②口 |③---|
14
口口口① |①---|
③口②口 |②---|
口④⑤① |③---|
③口口口 |④-⑤-|
15
口①口口 |----|
口③④② |①---|
口口口口 |②---|
口口口口 |③-④-|
16
口口口口 |----|
③口口③ |①---|
①口口口 |②---|
口口②口 |③---|
17
①③④② |①-②-|
口⑤口口 |③-④-|
⑥口口⑥ |⑤-⑥-|
口口口口 |----|
18
口口口② |----|
①口口口 |①---|
口口口③ |②---|
口口口口 |--③-|
19
口口口口 |--①-|
③①④口 |②---|
口②口口 |③---|
④口③口 |④---|
20
口口口口 |----|
口口口③ |①---|
①口口口 |②---|
口口口② |--③-|
21
③①④口 |--①-|
口②口口 |②---|
④口③口 |③---|
口口口口 |④---|
22
口口口② |----|
①口口口 |①---|
口口口③ |②---|
口口口口 |--③-|
23
口口口口 |--①-|
③①④口 |②---|
口②口口 |③---|
④口③口 |④---|
24
口口口口 |----|
口口口口 |①---|
①③④口 |②---|
口口口② |③-④-|
25
口口口口 |①---|
口口②① |②---|
口口口口 |③---|
③④口口 |④---|
26
①口口口 |①---|
口②口③ |②---|
①⑤④口 |③---|
口口口③ |④-⑤-|
27
口口①口 |----|
②④③口 |①---|
口口口口 |②---|
口口口口 |③-④-|
28
口口口口 |----|
口口口口 |①---|
口④③① |②---|
口②口口 |③-④-|
29
口口口口 |----|
①口口① |①---|
③口口③ |②---|
口口②口 |③---|
30
①口口① |①---|
③口②口 |②---|
口④⑤口 |③---|
口口口口 |④-⑤-|
31
口①口口 |----|
口③④② |①---|
口口口口 |②---|
口口口口 |③-④-|
32
口口口口 |----|
口口口口 |①---|
①③④口 |②---|
口口②口 |③-④-|
33
②④③① |①-②-|
口⑦⑤口 |③-④-|
⑥口口⑥ |⑤-⑥-|
口口口口 |--⑦-|
34
③口口口 |①---|
口口口② |②---|
④口口口 |③---|
口①口口 |--④-|
35
口口口口 |--①-|
口④①③ |②---|
口口②口 |③---|
口③口④ |④---|
36
口口口口 |----|
③口口口 |①---|
口口口① |②---|
②口口口 |--③-|
37
口④①③ |--①-|
口口②口 |②---|
口③口④ |③---|
口口口口 |④---|
38
②口口口 |----|
口口口① |①---|
③口口口 |②---|
口口口口 |--③-|
39
口口口口 |--①-|
口④①③ |②---|
口口②口 |③---|
口③口④ |④---|
40
口口口口 |----|
口口口口 |①---|
口④③① |②---|
②口口口 |③-④-|
41
③①②口 |--①-|
口④口口 |②---|
③口口口 |③---|
口口口口 |④---|
42
口口口① |①---|
③口②口 |②---|
口④⑤① |③---|
③口口口 |④-⑤-|
43
口①口口 |----|
口③口② |①---|
口口口口 |②---|
口口口口 |③---|
44
②口口② |①---|
口口口口 |②---|
①④⑤① |③---|
口口③口 |④-⑤-|
45
③口口③ |----|
①口口① |①---|
口口口口 |②---|
口②口口 |③---|
46
口口口口 |①---|
口②口③ |②---|
①⑤④① |③---|
口口口口 |④-⑤-|
47
口口①口 |----|
②④③口 |①---|
口口口口 |②---|
口口口口 |③-④-|
48
口口口口 |----|
③口口③ |①---|
口口口① |②---|
口②口口 |③---|
49
口①⑤口 |①-②-|
口②⑥口 |③-④-|
口⑧④口 |⑤-⑥-|
口⑦③口 |⑦-⑧-|
50
口②口口 |----|
口口口① |①---|
③口口口 |②---|
口口口口 |③---|
51
口口③口 |①-②-|
口口口口 |--③-|
口④口口 |----|
口②①口 |④---|
52
①口口① |①---|
③口口③ |--②-|
口口口口 |----|
②口口② |③---|
53
口口口口 |①-②-|
口口口口 |③---|
⑤④口③ |④---|
口②①口 |⑤---|
54
口口②口 |①---|
①口③口 |----|
口口④口 |②③④⑤|
口口⑤口 |----|
55
③③口口 |①---|
口口口② |②---|
口口口① |③---|
④口口口 |④---|
56
口口口口 |①---|
口④①口 |②---|
口②口口 |③---|
口口口③ |④---|
57
④口口④ |①---|
口口口口 |②---|
③口①③ |③---|
口②口口 |④---|
58
口口②口 |----|
口①①口 |①---|
口①①③ |②---|
口口口口 |③---|
59
口③口口 |①-②-|
口口口口 |--③-|
口口④口 |----|
口①②口 |④---|
60
①口口① |①---|
③口口③ |--②-|
口口口口 |----|
②口口② |③---|
61
口口口口 |----|
口口口口 |①---|
③③口口 |②---|
口①②口 |③---|
62
口口②口 |①---|
①①口口 |②---|
口口④④ |③---|
口③口口 |④---|
63
口②口口 |①---|
口口①① |②---|
口口口口 |③---|
④口③④ |④---|
64
①口③① |①---|
口口④口 |②---|
②口⑤② |③-④-|
口口口口 |⑤---|
65
口①口口 |①-②-|
口②口口 |③-④-|
口③口口 |⑤---|
⑥④口⑤ |⑥---|
66
③口⑤口 |①---|
口口③口 |②---|
①④口② |③---|
口⑤①口 |④-⑤-|
67
口口口② |①-②-|
①③口口 |--③-|
④口③⑤ |④---|
②口口口 |⑤---|
68
口①⑤口 |①---|
②口④① |②---|
口③口口 |③---|
口⑤口③ |④-⑤-|
69
口口口② |①-②-|
⑤③口④ |--③-|
口口③① |④---|
②口口口 |⑤---|
70
①④口口 |①---|
口⑤③⑤ |②---|
口①口口 |③---|
口口②③ |④-⑤-|
71
口口口③ |--①-|
口口口口 |---②----|
①④①口 |③---|
②口口口 |④---|
72
①①②口 |①---|
①③口② |--②-|
②口③① |----|
口②①① |③---|
73
③口口① |①---|
口口口口 |②---|
④口口② |③---|
口口口口 |④---|
74
口①⑤口 |①---|
②口④① |②---|
口③口口 |③---|
口⑤口③ |④-⑤-|
75
口口口② |①-②-|
⑤③口④ |--③-|
口口③① |④---|
②口口口 |⑤---|
76
③口⑤口 |①---|
口口③口 |②---|
①④口② |③---|
口⑤①口 |④-⑤-|
77
口口口② |①-②-|
①③口口 |--③-|
④口③⑤ |④---|
②口口口 |⑤---|
78
③②口口 |①---|
口口①口 |②---|
⑤③⑤口 |③---|
口口④① |④-⑤-|
79
口口口② |--①-|
口①④① |---②----|
口口口口 |③---|
③口口口 |④---|
80
①①②口 |①---|
①③口② |--②-|
②口③① |----|
口②①① |③---|
81
口口口④ |①---|
口口③口 |②---|
口②口口 |③---|
①口口口 |④---|
82
口③①口 |①---|
②④口⑤ |②---|
口口③① |③---|
口②④口 |④-⑤-|
83
①口口② |--①-|
口口口口 |②-③-|
③口口④ |④---|
口⑤口口 |⑤---|
84
③口口⑤ |①---|
口口①口 |②-③-|
④⑤③口 |--④-|
①口②口 |⑤---|
85
口①口口 |①-②-|
③②口口 |③---|
口口⑥⑤ |④-⑤-|
口口口④ |⑥---|
86
口②④口 |①---|
口口③① |②---|
②④口⑤ |③---|
口③①口 |④-⑤-|
87
口⑤口口 |--①-|
③口口④ |②-③-|
口口口口 |④---|
①口口② |⑤---|
88
①口口① |①---|
口②①口 |②---|
口③④口 |③---|
③口口③ |④---|
89
口②①口 |①---|
④口口① |②---|
③口口② |③---|
口③④口 |④---|
90
①口口口 |①---|
口②口口 |②-③-|
口口③口 |----|
口④口口 |④---|
91
口③②① |①---|
口口口口 |②---|
口口口④ |③---|
口口口口 |④---|
92
口口④口 |①---|
口③口口 |②-③-|
①口②口 |----|
口口口口 |④---|
93
口口口口 |①---|
口口口口 |②---|
④口口④ |③---|
①②③口 |④---|
94
口②③口 |①---|
①口口① |②-③-|
口④④口 |----|
口口口口 |④---|
95
②口口③ |①---|
口①①口 |②-③-|
口口口口 |----|
④口口口 |④---|
96
口③①口 |①---|
③口②① |--②-|
②①口③ |----|
口②③口 |③---|
97
①口口口 |①---|
口②口口 |②---|
口口③口 |③---|
口口口④ |④---|
98
口①③口 |①---|
⑤口④② |②---|
①③口口 |③---|
口④②口 |④-⑤-|
99
②口口① |--①-|
口口口口 |②-③-|
④口口③ |④---|
口口⑤口 |⑤---|
100
⑤口口③ |①---|
口①口口 |②-③-|
口③⑤④ |--④-|
口②口① |⑤---|
101
口口①口 |①-②-|
口口②③ |③---|
⑤⑥口口 |④-⑤-|
④口口口 |⑥---|
102
口④②口 |①---|
①③口口 |②---|
⑤口④② |③---|
口①③口 |④-⑤-|
103
口口⑤口 |--①-|
④口口③ |②-③-|
口口口口 |④---|
②口口① |⑤---|
104
①②口口 |①---|
口④③口 |②---|
口口②① |③---|
口③④口 |④---|
105
口口口① |①---|
口口口② |②---|
④口口口 |③---|
③口口口 |④---|
106
口口④口 |①---|
口③口口 |②-③-|
口口②口 |----|
口口口① |④---|
107
口口口口 |①---|
④口口口 |②---|
口口口口 |③---|
①②③口 |④---|
108
口口口口 |①---|
口②口① |②-③-|
口口③口 |----|
口④口口 |④---|
109
口③②① |①---|
④口口④ |②---|
口口口口 |③---|
口口口口 |④---|
110
口口口口 |①---|
口④④口 |②-③-|
①口口① |----|
口③②口 |④---|
111
口口口④ |①---|
口口口口 |②-③-|
口①①口 |----|
③口口② |④---|
112
口③②口 |①---|
③口①② |--②-|
①②口③ |----|
口①③口 |③---|
113
口口口口 |----|
口口口口 |----|
口口口口 |----|
口口口口 |----|
114
口口口口 |①---|
①①①① |----|
①①①① |----|
口口口口 |----|
115
口口口口 |----|
口口口口 |----|
口口口口 |----|
口口口口 |----|
116
口口口口 |----|
口口口口 |----|
口口口口 |----|
口口口口 |----|
117
口口口口 |①---|
口②③口 |②---|
口①④口 |③---|
口口口口 |④---|
118
①口④⑤ |①-②-|
口⑦口② |③-④-|
口③口⑧ |⑤-⑥-|
口口⑥口 |⑦-⑧-|
119
口⑥口口 |①-②-|
⑧口③口 |③-④-|
②口⑦口 |⑤-⑥-|
⑤④口① |⑦-⑧-|
120
口口③① |①-②-|
口②口④ |③-④-|
口⑥口⑧ |⑤-⑥-|
口口⑦⑤ |⑦-⑧-|
121
①③口口 |①-②-|
④口②口 |③-④-|
⑧口⑥口 |⑤-⑥-|
⑤⑦口口 |⑦-⑧-|
122
③口口③ |①---|
口①口① |----|
口口口② |②---|
口口②口 |③---|
123
口③口口 |①---|
③②①口 |②---|
口①②口 |③---|
④口口④ |④---|
124
口⑧⑥口 |①-②-|
⑦口口② |③-④-|
⑤口口④ |⑤-⑥-|
口①③口 |⑦-⑧-|
125
②口口① |①-②-|
口口③口 |③---|
口④④口 |④---|
口口口口 |----|
126
口口⑥口 |①-②-|
口②口⑧ |③-④-|
④口⑦⑤ |⑤-⑥-|
①③口口 |⑦-⑧-|
127
①③口口 |①-②-|
④口⑥口 |③-④-|
口②口⑧ |⑤-⑥-|
口口⑦⑤ |⑦-⑧-|
128
④⑧⑤口 |①-②-|
⑦口口口 |③-④-|
③⑥②口 |⑤-⑥-|
①口口口 |⑦-⑧-|
129
口口口① |①-②-|
口②⑥③ |③-④-|
口口口⑦ |⑤-⑥-|
口⑤口④ |⑦---|
130
口⑥⑤④ |①②③-|
口口口口 |----|
①②③口 |④⑤⑥-|
口口口口 |----|
131
口口口口 |①②③-|
口④口① |----|
口⑤口② |④⑤⑥-|
口⑥口③ |----|
132
①③口③ |①---|
口⑤④口 |②---|
②口②口 |③---|
口口口口 |④-⑤-|
133
口口口口 |①-②-|
⑤口口⑤ |③-④-|
⑥⑥⑥⑥ |⑤-⑥-|
②④③① |----|

accuracy: 100%
最終更新:2022年08月11日 17:10